Правила форума

Здесь находятся раздачи, на которых не было полного источника (сида) более месяца.
Вы можете вернуть релиз в соответствующий раздел, для этого напишите нам в специальной теме и встаньте на раздачу.
Новые релизы, повторяющие релизы в архиве, повторами не считаются.
Начать новую темуОтветить на тему  [ Сообщений: 2 ] 
Сообщения
 Добавлено: 2011-08-03 15:00
ННПортал Юнайтед
Аватара пользователя
Стаж: 5 лет 8 месяцев
Сообщений: 1805
Спасибок: 4262
Лайков: 986
Смертельные гонки 2000 года / Death Race 2000

«Across the town the traffic is MURDER»

Изображение


Год выпуска: 1975
Страна: США
Жанр: фантастика, боевик, спорт
Продолжительность: 01:19:36
Перевод: Авторский (одноголосный закадровый) [Сергей Кузнецов] + Оригинал

Режиссёр: Пол Бартел
Сценарист: Иб Мельхиор, Роберт Том, Чарльз Б. Гриффит
Продюсер: Роджер Корман, Джим Уэверилл
Оператор: Так Фудзимото
Композитор: Пол Чихара
В ролях: Дэвид Кэррадайн, Симона Гриффет, Сильвестр Сталлоне, Мэри Воронов, Роберта Коллинз, Мартин Коув, Луиза Мориц, Дон Стил, Джойс Джеймисон, Карле Бенсен
Описание: В не столь отдаленном будущем главным спортивным событием в мире становятся так называемые «Смертельные гонки». Участники соревнования получают зачетные очки за каждого сбитого насмерть прохожего.
Рейтинг MPAA: Рейтинг R (Подростки до 17 лет допускаются на фильм только в сопровождении одного из родителей)
Изображение 6.198 (463)
Изображение 6.2 (11,043 votes)

Качество: BDRip 720р
Формат: MKV
Видео кодек: AVC
Аудио кодек: AC3
Видео: AVC; 1280x720 (16:9); 6875 Kbps; 23,976 fps; 0,311 bpp
Аудио #1: Russian; AC3; 192 Kbps; CBR; 2 ch [Авторский одноголосый ([Сергей Кузнецов])]
Аудио #2: AC3; 448 Kbps; CBR; 2 ch [Оригинальная звуковая дорожка]
Изображение
MediaInfo
Unique ID : 191416481452467769070285657775938651733 (0x9001792D53358CBFA9F0B415ED1EC655)
Complete name : E:\Раздачи-3\Смертельные гонки 2000 года.BDRip 720р.mkv
Format : Matroska
Format version : Version 2
File size : 4.26 GiB
Duration : 1h 19mn
Overall bit rate : 7 668 Kbps
Encoded date : UTC 2011-07-25 18:57:29
Writing application : mkvmerge v4.7.0 ('Just Like You Imagined') зібрано Apr 21 2011 01:13:14
Writing library : libebml v1.2.0 + libmatroska v1.1.0

Video
ID : 1
Format : AVC
Format/Info : Advanced Video Codec
Format profile : Baseline@L1.3
Format settings, CABAC : No
Format settings, ReFrames : 1 frame
Format settings, GOP : M=1, N=12
Muxing mode : Header stripping
Codec ID : V_MPEG4/ISO/AVC
Duration : 1h 19mn
Bit rate : 6 875 Kbps
Width : 1 280 pixels
Height : 720 pixels
Display aspect ratio : 16:9
Frame rate : 23.976 fps
Color space : YUV
Chroma subsampling : 4:2:0
Bit depth : 8 bits
Scan type : Progressive
Bits/(Pixel*Frame) : 0.311
Stream size : 3.82 GiB (90%)
Language : English

Audio #1
ID : 2
Format : AC-3
Format/Info : Audio Coding 3
Format profile : Dolby Digital
Mode extension : CM (complete main)
Muxing mode : Header stripping
Codec ID : A_AC3
Duration : 1h 19mn
Bit rate mode : Constant
Bit rate : 192 Kbps
Channel(s) : 2 channels
Channel positions : Front: L R
Sampling rate : 48.0 KHz
Bit depth : 16 bits
Compression mode : Lossy
Stream size : 109 MiB (3%)
Title : AVO (С.Кузнецов)
Language : Russian

Audio #2
ID : 3
Format : AC-3
Format/Info : Audio Coding 3
Mode extension : CM (complete main)
Muxing mode : Header stripping
Codec ID : A_AC3
Duration : 1h 19mn
Bit rate mode : Constant
Bit rate : 448 Kbps
Channel(s) : 2 channels
Channel positions : Front: L R
Sampling rate : 48.0 KHz
Bit depth : 16 bits
Compression mode : Lossy
Stream size : 255 MiB (6%)
Title : Original
Language : English
Свернуть

Скриншоты
Изображение
Изображение
Изображение
Изображение
Изображение
Свернуть
Не в сети
Профиль  
 Добавлено: 2011-08-03 19:12 (спустя 4 часа)
Аватара пользователя
Стаж: 8 лет 3 месяца
Возраст: 43
Сообщений: 3290
Спасибок: 21012
Лайков: 3
классика - золото :co_ol: :)
_________________
Изображение
Не в сети
Профиль  
Начать новую темуОтветить на тему  [ Сообщений: 2 ] 
Вы не можете начинать темы
Вы не можете отвечать на сообщения
Вы не можете редактировать свои сообщения
Вы не можете удалять свои сообщения