Правила форума

Здесь находятся раздачи, на которых не было полного источника (сида) более месяца.
Вы можете вернуть релиз в соответствующий раздел, для этого напишите нам в специальной теме и встаньте на раздачу.
Новые релизы, повторяющие релизы в архиве, повторами не считаются.
Начать новую темуОтветить на тему  [ Сообщений: 3 ] 
Сообщения
 Добавлено: 2014-08-14 12:12
Руководитель релиз-группы
Аватара пользователя
Стаж: 7 лет 2 месяца
Возраст: 4
Сообщений: 5213
Спасибок: 19350
Лайков: 2312
Смешанные / Blended

Изображение


Год выпуска: 2014
Страна: США
Жанр: Комедия
Продолжительность: 01:56:67
Перевод: Профессиональный (дубляж)

Режиссёр: Фрэнк Корачи
В ролях: Адам Сэндлер, Дрю Бэрримор, Кевин Нилон, Терри Крюс, Венди МакЛендон-Кови, Эмма Фурманн, Белла Торн, Брэкстон Бэкхам, Аливия Элин Линд, Джоэл МакХэйл
Описание: После неудачного свидания вслепую мужчина и женщина оказываются застрявшими вместе на семейном курорте…


Качество: BDRip [1080p]
Формат: MKV
Видео: AVC,1920x1040, 23.976fps, 9 168 Kbit/s
Аудио #1: AC3, 48000 Hz,6 каналов,384 kbit/s-Русский [Профессиональный (дубляж)]
Аудио #2: DTS, 48000 Hz,6 каналов,1509 kbit/s-Английский [Профессиональный (дубляж)]
Скриншоты
Изображение
Изображение
Изображение
Свернуть


MI

General
Unique ID : 202384904534828318406221728344964931272 (0x9841EA2FE91D51218C61DDE9F59D1EC8)
Complete name : D:ФильмыBlended.2014.1080p.BluRay.x264.mkv
Format : Matroska
Format version : Version 2
File size : 9.05 GiB
Duration : 1h 57mn
Overall bit rate : 11.1 Mbps
Encoded date : UTC 2014-08-14 03:35:28
Writing application : mkvmerge v5.0.1 ('Es ist Sommer') built on Nov 6 2011 16:23:40
Writing library : libebml v1.2.2 + libmatroska v1.3.0

Video
ID : 1
Format : AVC
Format/Info : Advanced Video Codec
Format profile : High@L4.1
Format settings, CABAC : Yes
Format settings, ReFrames : 4 frames
Muxing mode : Header stripping
Codec ID : V_MPEG4/ISO/AVC
Duration : 1h 57mn
Bit rate : 9 168 Kbps
Width : 1 920 pixels
Height : 1 040 pixels
Display aspect ratio : 1.85:1
Frame rate mode : Constant
Frame rate : 23.976 fps
Color space : YUV
Chroma subsampling : 4:2:0
Bit depth : 8 bits
Scan type : Progressive
Bits/(Pixel*Frame) : 0.191
Stream size : 7.32 GiB (81%)
Writing library : x264 core 142 r2431 ac76440
Encoding settings : cabac=1 / ref=4 / deblock=1:0:0 / analyse=0x3:0x133 / me=umh / subme=7 / psy=1 / psy_rd=1.00:0.00 / mixed_ref=1 / me_range=16 / chroma_me=1 / trellis=1 / 8x8dct=1 / cqm=0 / deadzone=21,11 / fast_pskip=0 / chroma_qp_offset=-2 / threads=18 / lookahead_threads=3 / sliced_threads=0 / nr=0 / decimate=1 / interlaced=0 / bluray_compat=0 / constrained_intra=0 / bframes=3 / b_pyramid=2 / b_adapt=1 / b_bias=0 / direct=1 / weightb=1 / open_gop=0 / weightp=2 / keyint=250 / keyint_min=23 / scenecut=40 / intra_refresh=0 / rc_lookahead=40 / rc=2pass / mbtree=1 / bitrate=9168 / ratetol=1.0 / qcomp=0.60 / qpmin=0 / qpmax=69 / qpstep=4 / cplxblur=20.0 / qblur=0.5 / ip_ratio=1.40 / aq=1:1.00
Language : English
Default : Yes
Forced : No

Audio #1
ID : 2
Format : AC-3
Format/Info : Audio Coding 3
Mode extension : CM (complete main)
Format settings, Endianness : Big
Muxing mode : Header stripping
Codec ID : A_AC3
Duration : 1h 57mn
Bit rate mode : Constant
Bit rate : 384 Kbps
Channel(s) : 6 channels
Channel positions : Front: L C R, Side: L R, LFE
Sampling rate : 48.0 KHz
Bit depth : 16 bits
Compression mode : Lossy
Stream size : 322 MiB (3%)
Title : Русский (iTunes)
Language : Russian
Default : Yes
Forced : No

Audio #2
ID : 3
Format : DTS
Format/Info : Digital Theater Systems
Mode : 16
Format settings, Endianness : Big
Muxing mode : Header stripping
Codec ID : A_DTS
Duration : 1h 57mn
Bit rate mode : Constant
Bit rate : 1 509 Kbps
Channel(s) : 6 channels
Channel positions : Front: L C R, Side: L R, LFE
Sampling rate : 48.0 KHz
Bit depth : 24 bits
Compression mode : Lossy
Stream size : 1.24 GiB (14%)
Title : Английский
Language : English
Default : No
Forced : No

Menu
00:00:00.000 : en:00:00:00.000
00:10:32.715 : en:00:10:32.715
00:21:16.150 : en:00:21:16.150
00:32:56.433 : en:00:32:56.433
00:42:23.624 : en:00:42:23.624
00:49:49.195 : en:00:49:49.195
00:58:11.822 : en:00:58:11.822
01:10:44.782 : en:01:10:44.782
01:19:45.406 : en:01:19:45.406
01:33:10.293 : en:01:33:10.293
01:41:25.246 : en:01:41:25.246
01:50:36.046 : en:01:50:36.046
Свернуть
 Sid011 нравится это.
Не в сети
Профиль  
 Добавлено: 2014-08-15 16:05 (спустя 1 день 3 часа)
Аватара пользователя
Стаж: 9 лет
Сообщений: 539
Спасибок: 1518
Не знаю кто делал рип, но он неудачник. Фильм не проматывается ни чем и ни как.
Не в сети
Профиль  
 Добавлено: 2014-08-26 01:43 (спустя 10 дней)
Модератор
Аватара пользователя
Стаж: 6 лет 5 месяцев
Возраст: 23
Сообщений: 321
Спасибок: 3112
Лайков: 56

xatab:

Не знаю кто делал рип, но он неудачник. Фильм не проматывается ни чем и ни как.

это ты неудачник :-D кодеки обнови!) У всех просматривается,а у тебя нет. Удачи :co_ol:
_________________

Изображение
В сети
Профиль  
Начать новую темуОтветить на тему  [ Сообщений: 3 ] 
Вы не можете начинать темы
Вы не можете отвечать на сообщения
Вы не можете редактировать свои сообщения
Вы не можете удалять свои сообщения