Правила форума

Здесь находятся раздачи, на которых не было полного источника (сида) более месяца.
Вы можете вернуть релиз в соответствующий раздел, для этого напишите нам в специальной теме и встаньте на раздачу.
Новые релизы, повторяющие релизы в архиве, повторами не считаются.
Начать новую темуОтветить на тему  [ 1 сообщение ] 
Сообщения
 Добавлено: 2011-09-27 20:29
Top-releaser
Стаж: 7 лет 4 месяца
Возраст: 33
Сообщений: 409
Спасибок: 6402
Лайков: 6
Изображение

Сокровище нации: Дилогия


National Treasure: Duology


Сокровище нации / National Treasure
Сокровище нации
National Treasure
«The clues are right in front of your eyes.»

Изображение
Год выпуска: 2004
Страна: США
Жанр: боевик, триллер, детектив, приключения
Продолжительность: 02:11:06
Перевод: Профессиональный (дублирование) [Blu-ray EUR] + Профессиональный (двухголосый) [П.Гланц, И.Королёва] + Профессиональный (двухголосый) [Tycoon-Studio] + А.Гаврилов + В.Королёв + Профессиональный (многоголосый) [[1+1]-украина] + Оригинал + комментарии

Режиссер: Джон Тёртелтауб / Jon Turteltaub
Сценарий: Джим Кауф / Jim Kouf, Кормак Уибберли / Cormac Wibberley, Мэриэнн Уибберли / Marianne Wibberley, Орен Авив / Oren Aviv, Чарльз Сегарс / Charles Segars
Продюсер: Джерри Брукхаймер / Jerry Bruckheimer, Джон Тёртелтауб / Jon Turteltaub, Орен Авив / Oren Aviv, Майкл Э. Услан / Michael E. Uslan, Бэрри Х. Уолдман / Barry H. Waldman
Оператор: Калеб Дешанель / Caleb Deschanel
Композитор: Тревор Рэбин / Trevor Rabin

В ролях: Николас Кейдж (Benjamin Franklin Gates,), Дайан Крюгер (Abigail Chase), Джастин Барта (Riley Poole), Шон Бин (Ian Howe), Джон Войт (Patrick Gates), Харви Кейтель (Sadusky), Кристофер Пламмер (John Adams Gates), Дэвид Дайан Фишер (Shaw), Стюарт Финлэй-МакЛеннан (Powell), Олег Тактаров (Shippen), Стефен А. Поуп (Phil), Энни Париссе (Agent Dawes)
Дублёры: Станислав Концевич (Benjamin Franklin Gates), Елена Шульман (Abigail Chase), Андрей Лёвин (Riley Poole), Андрей Ургант (Ian Howe), Игорь Шибанов (Patrick Gates), Вадим Яковлев (Sadusky), Юрий Лазарев (John Adams Gates), Максим Сергеев (Shippen), Иван Паршин (Agent Johnson), Валерий Кухарешин (Dr. Stan Herbert)

Описание: Современные охотники за сокровищами во главе с Беном Франклином Гейтсом узнают старинную легенду о сокровище, спрятанном еще отцами-основателями американского государства Джорджем Вашингтоном, Бенджамином Франклином и Томасом Джефферсоном. Узнать тайну клада можно с помощью Декларации Независимости США, в которой зашифрована разгадка. Но помимо разгадывания изощренной головоломки, нашим героям предстоит сразиться с любителями легкой наживы, жаждущим погреть руки на достоянии республики


Рейтинг
Kinopoisk.RU: (7.784)
Imdb.com: 6.80 (102 157)
Mpaa: Изображение


Качество: BDRip 720p
Формат: MKV
Видео: AVC; 1280x532 (2.40:1); 4663 Kbps; 23,976 fps; 0,286 bpp
Аудио 1: Russian; AC3; 640 Kbps; CBR; 6 ch - Дубляж (Blu-ray EUR)
Аудио 2: Russian; DTS; 754 Kbps; CBR; 6 ch; 16 bit - Двухголосый (П.Гланц, И.Королёва)
Аудио 3: Rus; AC3; 448 Kbps; CBR; 6 ch - Двухголосый (Tycoon-Studio)
Аудио 4: Rus; DTS; 754 Kbps; CBR; 6 ch; 16 bit - А.Гаврилов|
Аудио 5: Rus; DTS; 754 Kbps; CBR; 6 ch; 16 bit - В.Королёв
Аудио 6: Ukr; AC3; 224 Kbps; CBR; 2 ch - MVO (1+1)-украинский
Аудио 7: Eng; AC3; 640 Kbps; CBR; 6 ch - Оригинал
Аудио 8: Eng; AC3; 192 Kbps; CBR; 2 ch - (Commentary with Director John Turtletaub and Actor Justin Bartha)
Субтитры: Russian (full, forced, commentary), Ukrainian, English

Релиз: Изображение
"Знаете ли Вы, что..."
  • Все хорошие парни в фильме пользуются при работе в интернете поисковиком «Google», а плохие - «Yahoo!»
  • Вода в бассеине перед Мемориалом Линкольна в сцене разговора Бена и Райли была вставленна в кадр уже при компьютерной обработке, поскольку на момент съемок бассеин был осушен для профилактических работ.
Свернуть
Mediainfo
General
Unique ID : 185398032606334662631561184107318793588 (0x8B7A5CBD3F9A1AAD887194117190D574)
Complete name : D:\uTorrent\National.Treasure.Duology.720p.BDRip\National.Treasure.2004.720p.BluRay.5xRus.Ukr.2xEng.mkv
Format : Matroska
Format version : Version 2
File size : 8.48 GiB
Duration : 2h 11mn
Overall bit rate : 9 255 Kbps
Movie name : National Treasure (2004) - Release for HDCLUB
Encoded date : UTC 2011-08-15 18:41:54
Writing application : mkvmerge v4.9.1 ('Ich will') сборка от Jul 11 2011 23:53:15
Writing library : libebml v1.2.1 + libmatroska v1.1.1
Video #1
ID : 1
Format : AVC
Format/Info : Advanced Video Codec
Format profile : High@L4.1
Format settings, CABAC : Yes
Format settings, ReFrames : 10 frames
Format settings, GOP : M=1, N=48
Codec ID : V_MPEG4/ISO/AVC
Duration : 2h 11mn
Bit rate : 4 664 Kbps
Width : 1 280 pixels
Height : 532 pixels
Display aspect ratio : 2.40:1
Frame rate : 23.976 fps
Color space : YUV
Chroma subsampling : 4:2:0
Bit depth : 8 bits
Scan type : Progressive
Bits/(Pixel*Frame) : 0.286
Stream size : 4.27 GiB (50%)
Title : National Treasure (2004) - Release for HDCLUB
Writing library : x264 core 115 r1995 c1e60b9
Encoding settings : cabac=1 / ref=10 / deblock=1:-3:-3 / analyse=0x3:0x133 / me=umh / subme=10 / psy=1 / psy_rd=1.00:0.00 / mixed_ref=1 / me_range=64 / chroma_me=1 / trellis=2 / 8x8dct=1 / cqm=0 / deadzone=21,11 / fast_pskip=0 / chroma_qp_offset=-2 / threads=9 / sliced_threads=0 / nr=0 / decimate=0 / interlaced=0 / bluray_compat=0 / constrained_intra=0 / bframes=9 / b_pyramid=2 / b_adapt=2 / b_bias=0 / direct=3 / weightb=1 / open_gop=0 / weightp=2 / keyint=250 / keyint_min=23 / scenecut=40 / intra_refresh=0 / rc_lookahead=40 / rc=crf / mbtree=0 / crf=17.4 / qcomp=0.60 / qpmin=0 / qpmax=69 / qpstep=4 / vbv_maxrate=50000 / vbv_bufsize=62500 / crf_max=0.0 / nal_hrd=none / ip_ratio=1.40 / pb_ratio=1.30 / aq=1:0.80
Language : English
Audio #2
ID : 2
Format : AC-3
Format/Info : Audio Coding 3
Mode extension : CM (complete main)
Codec ID : A_AC3
Duration : 2h 11mn
Bit rate mode : Constant
Bit rate : 640 Kbps
Channel(s) : 6 channels
Channel positions : Front: L C R, Side: L R, LFE
Sampling rate : 48.0 KHz
Bit depth : 16 bits
Compression mode : Lossy
Stream size : 600 MiB (7%)
Title : Дубляж, Blu-ray EUR
Language : Russian
Audio #3
ID : 3
Format : DTS
Format/Info : Digital Theater Systems
Codec ID : A_DTS
Duration : 2h 11mn
Bit rate mode : Constant
Bit rate : 755 Kbps
Channel(s) : 6 channels
Channel positions : Front: L C R, Side: L R, LFE
Sampling rate : 48.0 KHz
Bit depth : 16 bits
Compression mode : Lossy
Stream size : 708 MiB (8%)
Title : Двухголосый закадровый, П.Гланц, И.Королёва
Language : Russian
Audio #4
ID : 4
Format : AC-3
Format/Info : Audio Coding 3
Mode extension : CM (complete main)
Codec ID : A_AC3
Duration : 2h 11mn
Bit rate mode : Constant
Bit rate : 448 Kbps
Channel(s) : 6 channels
Channel positions : Front: L C R, Side: L R, LFE
Sampling rate : 48.0 KHz
Bit depth : 16 bits
Compression mode : Lossy
Stream size : 420 MiB (5%)
Title : Двухголосый закадровый, Tycoon-Studio
Language : Russian
Audio #5
ID : 5
Format : DTS
Format/Info : Digital Theater Systems
Codec ID : A_DTS
Duration : 2h 11mn
Bit rate mode : Constant
Bit rate : 755 Kbps
Channel(s) : 6 channels
Channel positions : Front: L C R, Side: L R, LFE
Sampling rate : 48.0 KHz
Bit depth : 16 bits
Compression mode : Lossy
Stream size : 708 MiB (8%)
Title : Одноголосый закадровый, А.Гаврилов
Language : Russian
Audio #6
ID : 6
Format : DTS
Format/Info : Digital Theater Systems
Codec ID : A_DTS
Duration : 2h 11mn
Bit rate mode : Constant
Bit rate : 755 Kbps
Channel(s) : 6 channels
Channel positions : Front: L C R, Side: L R, LFE
Sampling rate : 48.0 KHz
Bit depth : 16 bits
Compression mode : Lossy
Stream size : 708 MiB (8%)
Title : Одноголосый закадровый, В.Королёв
Language : Russian
Audio #7
ID : 7
Format : AC-3
Format/Info : Audio Coding 3
Mode extension : CM (complete main)
Codec ID : A_AC3
Duration : 2h 11mn
Bit rate mode : Constant
Bit rate : 224 Kbps
Channel(s) : 2 channels
Channel positions : Front: L R
Sampling rate : 48.0 KHz
Bit depth : 16 bits
Compression mode : Lossy
Stream size : 210 MiB (2%)
Title : Многоголосый закадровый, 1+1
Language : Ukrainian
Audio #8
ID : 8
Format : AC-3
Format/Info : Audio Coding 3
Mode extension : CM (complete main)
Codec ID : A_AC3
Duration : 2h 11mn
Bit rate mode : Constant
Bit rate : 640 Kbps
Channel(s) : 6 channels
Channel positions : Front: L C R, Side: L R, LFE
Sampling rate : 48.0 KHz
Bit depth : 16 bits
Compression mode : Lossy
Stream size : 600 MiB (7%)
Language : English
Audio #9
ID : 9
Format : AC-3
Format/Info : Audio Coding 3
Mode extension : CM (complete main)
Codec ID : A_AC3
Duration : 2h 11mn
Bit rate mode : Constant
Bit rate : 192 Kbps
Channel(s) : 2 channels
Channel positions : Front: L R
Sampling rate : 48.0 KHz
Bit depth : 16 bits
Compression mode : Lossy
Stream size : 180 MiB (2%)
Title : Commentary with Director John Turtletaub and Actor Justin Bartha
Language : English
Text #10
ID : 10
Format : UTF-8
Codec ID : S_TEXT/UTF8
Codec ID/Info : UTF-8 Plain Text
Title : Full
Language : Russian
Text #11
ID : 11
Format : UTF-8
Codec ID : S_TEXT/UTF8
Codec ID/Info : UTF-8 Plain Text
Title : Forced
Language : Russian
Text #12
ID : 12
Format : UTF-8
Codec ID : S_TEXT/UTF8
Codec ID/Info : UTF-8 Plain Text
Title : Commentary
Language : Russian
Text #13
ID : 13
Format : UTF-8
Codec ID : S_TEXT/UTF8
Codec ID/Info : UTF-8 Plain Text
Language : Ukrainian
Text #14
ID : 14
Format : ASS
Codec ID : S_TEXT/ASS
Codec ID/Info : Advanced Sub Station Alpha
Compression mode : Lossless
Language : English
Text #15
ID : 15
Format : ASS
Codec ID : S_TEXT/ASS
Codec ID/Info : Advanced Sub Station Alpha
Compression mode : Lossless
Title : SDH
Language : English
Menu
00:00:00.000 : en:Chapter 01
00:06:36.229 : en:Chapter 02
00:22:20.338 : en:Chapter 03
00:28:49.268 : en:Chapter 04
00:31:15.290 : en:Chapter 05
00:35:44.516 : en:Chapter 06
00:45:52.666 : en:Chapter 07
00:54:27.973 : en:Chapter 08
01:01:07.705 : en:Chapter 09
01:07:02.685 : en:Chapter 10
01:16:54.609 : en:Chapter 11
01:24:06.457 : en:Chapter 12
01:28:21.671 : en:Chapter 13
01:34:20.821 : en:Chapter 14
01:38:31.988 : en:Chapter 15
01:49:42.576 : en:Chapter 16
01:53:26.381 : en:Chapter 17
01:57:22.452 : en:Chapter 18
02:01:43.379 : en:Chapter 19
02:11:04.231 : en:Chapter 20
Свернуть
Скриншоты
Изображение

Изображение

Изображение
Свернуть
Свернуть


Сокровище нации: Книга Тайн / National Treasure: Book of Secrets
Сокровище нации: Книга Тайн
National Treasure: Book of Secrets

Изображение
Год выпуска: 2007
Страна: США
Жанр: боевик, триллер, комедия, детектив, приключения
Продолжительность: 02:04:32
Перевод: Профессиональный (дублирование) Blu-ray EUR + Авторский (Гаврилов Андрей) + Авторский (В.Королёв) + Профессиональный (дублирование) украинский + Оригинал + комментарии

Режиссер: Джон Тёртелтауб / Jon Turteltaub
Сценарий: Мэриэнн Уибберли / Marianne Wibberley, Кормак Уибберли / Cormac Wibberley, Грегори Пуарье / Gregory Poirier, Тед Эллиот / Ted Elliott, Терри Россио / Terry Rossio
Продюсер: Джерри Брукхаймер / Jerry Bruckheimer, Джон Тёртелтауб / Jon Turteltaub, Орен Авив / Oren Aviv, Бэрри Х. Уолдман / Barry H. Waldman, Джон Бернард / John Bernard
Оператор: Амир М. Мокри / Amir M. Mokri, Джон Шварцман / John Schwartzman
Композитор: Тревор Рэбин / Trevor Rabin

В ролях: Николас Кейдж (Ben Gates), Дайан Крюгер (Abigail Chase), Джастин Барта (Riley Poole), Джон Войт (Patrick Gates), Хелен Миррен (Emily Appleton), Эд Харрис (Mitch Wilkinson), Харви Кейтель (Sadusky), Брюс Гринвуд (The President), Ти Баррелл (Connor), Майкл Мейзе (Daniel), Тимоти В. Мерфи (Seth), Алисия Коппола (FBI Agent Spellman)
Дублёры: Станислав Концевич (Ben Gates), Елена Шульман (Abigail Chase), Андрей Лёвин (Riley Poole), Вадим Никитин (Patrick Gates), Галина Чигинская (Emily Appleton), Валерий Кухарешин (Mitch Wilkinson), Вадим Яковлев (Sadusky), Валерий Соловьев (The President), Андрей Тенетко (Connor), Андрей Пирог (Daniel), Регина Щукина (FBI Agent Spellman), Артем Веселов (FBI Agent Hendricks; John Wilkes Booth)

Описание: Охотник за сокровищами Бен Гейтс, вооружившись поддержкой любимой женщины, верного друга Райли, а также своих родителей, отправляется на поиски затерянного золотого города. Только пройдя сквозь череду невероятных и увлекательных приключений, Бену удастся очистить имя своего предка от обвинений в убийстве Авраама Линкольна. Но не все так просто - параллельные поиски города ведет и некий Митч Уилкинсон, готовый на все ради достижения цели.


Рейтинг
Kinopoisk.RU: (7.551)
Imdb.com: 6.50 (73 823)
Mpaa: Изображение


Качество: BDRip 720p
Формат: MKV
Видео: AVC; 1280x534 (2.35:1); 5905 Kbps; 23,976 fps; 0,360 bpp
Аудио 1: Rus; AC3; 640 Kbps; CBR; 6 ch - Дубляж (Blu-ray EUR)
Аудио 2: Rus; DTS; 754 Kbps; CBR; 6 ch; 16 bit - А.Гаврилов
Аудио 3: Rus; DTS; 754 Kbps; CBR; 6 ch; 16 bit - В.Королёв
Аудио 4: Ukr; AC3; 384 Kbps; CBR; 6 ch - Дубляж (украинский)
Аудио 5: Eng; AC3; 640 Kbps; CBR; 6 ch - Оригинал
Аудио 6: Eng; AC3; 192 Kbps; CBR; 2 ch - (Commentary with Director John Turtletaub and Actor Jon Voight)
Субтитры: Russian (full, forced, commentary), Ukrainian (full, forced), English

Релиз: Изображение
"Знаете ли Вы, что..."
  • Все герои фильма используют мобильные телефоны Motorola.
  • Райли работает с ноутбуком MacBook от фирмы Apple, а также применяет iPod для подключения к системам видеонаблюдения.
  • Отец Бена просматривает новости на портале MSN.
  • В сцене погони в Лондоне явно просматривается реклама пива Стелла Артуа.
Свернуть
Mediainfo
General
Unique ID : 250654526526604824713180467335855383112 (0xBC924E4B18AA1A6A9EE9139FCBBCA248)
Complete name : D:\uTorrent\National.Treasure.Duology.720p.BDRip\National.Treasure.Book.of.Secrets.2007.720p.BluRay.3xRus.Ukr.2xEng.mkv
Format : Matroska
Format version : Version 2
File size : 8.23 GiB
Duration : 2h 4mn
Overall bit rate : 9 458 Kbps
Movie name : National Treasure: Book of Secrets (2007) - Release for HDCLUB
Encoded date : UTC 2011-08-16 02:23:40
Writing application : mkvmerge v4.9.1 ('Ich will') сборка от Jul 11 2011 23:53:15
Writing library : libebml v1.2.1 + libmatroska v1.1.1
Video #1
ID : 1
Format : AVC
Format/Info : Advanced Video Codec
Format profile : High@L4.1
Format settings, CABAC : Yes
Format settings, ReFrames : 10 frames
Codec ID : V_MPEG4/ISO/AVC
Duration : 2h 4mn
Bit rate : 5 905 Kbps
Width : 1 280 pixels
Height : 534 pixels
Display aspect ratio : 2.40:1
Frame rate : 23.976 fps
Color space : YUV
Chroma subsampling : 4:2:0
Bit depth : 8 bits
Scan type : Progressive
Bits/(Pixel*Frame) : 0.360
Stream size : 5.14 GiB (62%)
Title : National Treasure: Book of Secrets (2007) - Release for HDCLUB
Writing library : x264 core 115 r1995 c1e60b9
Encoding settings : cabac=1 / ref=10 / deblock=1:-3:-3 / analyse=0x3:0x133 / me=umh / subme=10 / psy=1 / psy_rd=1.00:0.00 / mixed_ref=1 / me_range=64 / chroma_me=1 / trellis=2 / 8x8dct=1 / cqm=0 / deadzone=21,11 / fast_pskip=0 / chroma_qp_offset=-2 / threads=9 / sliced_threads=0 / nr=0 / decimate=0 / interlaced=0 / bluray_compat=0 / constrained_intra=0 / bframes=9 / b_pyramid=2 / b_adapt=2 / b_bias=0 / direct=3 / weightb=1 / open_gop=0 / weightp=2 / keyint=250 / keyint_min=23 / scenecut=40 / intra_refresh=0 / rc_lookahead=40 / rc=crf / mbtree=0 / crf=17.0 / qcomp=0.60 / qpmin=0 / qpmax=69 / qpstep=4 / vbv_maxrate=50000 / vbv_bufsize=62500 / crf_max=0.0 / nal_hrd=none / ip_ratio=1.40 / pb_ratio=1.30 / aq=1:0.80
Language : English
Audio #2
ID : 2
Format : AC-3
Format/Info : Audio Coding 3
Mode extension : CM (complete main)
Codec ID : A_AC3
Duration : 2h 4mn
Bit rate mode : Constant
Bit rate : 640 Kbps
Channel(s) : 6 channels
Channel positions : Front: L C R, Side: L R, LFE
Sampling rate : 48.0 KHz
Bit depth : 16 bits
Compression mode : Lossy
Stream size : 570 MiB (7%)
Title : Дубляж, Blu-ray EUR
Language : Russian
Audio #3
ID : 3
Format : DTS
Format/Info : Digital Theater Systems
Codec ID : A_DTS
Duration : 2h 4mn
Bit rate mode : Constant
Bit rate : 755 Kbps
Channel(s) : 6 channels
Channel positions : Front: L C R, Side: L R, LFE
Sampling rate : 48.0 KHz
Bit depth : 16 bits
Compression mode : Lossy
Stream size : 672 MiB (8%)
Title : Одноголосый закадровый, А.Гаврилов
Language : Russian
Audio #4
ID : 4
Format : DTS
Format/Info : Digital Theater Systems
Codec ID : A_DTS
Duration : 2h 4mn
Bit rate mode : Constant
Bit rate : 755 Kbps
Channel(s) : 6 channels
Channel positions : Front: L C R, Side: L R, LFE
Sampling rate : 48.0 KHz
Bit depth : 16 bits
Compression mode : Lossy
Stream size : 672 MiB (8%)
Title : Одноголосый закадровый, В.Королёв
Language : Russian
Audio #5
ID : 5
Format : AC-3
Format/Info : Audio Coding 3
Mode extension : CM (complete main)
Codec ID : A_AC3
Duration : 2h 4mn
Bit rate mode : Constant
Bit rate : 384 Kbps
Channel(s) : 6 channels
Channel positions : Front: L C R, Side: L R, LFE
Sampling rate : 48.0 KHz
Bit depth : 16 bits
Compression mode : Lossy
Stream size : 342 MiB (4%)
Title : Дубляж
Language : Ukrainian
Audio #6
ID : 6
Format : AC-3
Format/Info : Audio Coding 3
Mode extension : CM (complete main)
Codec ID : A_AC3
Duration : 2h 4mn
Bit rate mode : Constant
Bit rate : 640 Kbps
Channel(s) : 6 channels
Channel positions : Front: L C R, Side: L R, LFE
Sampling rate : 48.0 KHz
Bit depth : 16 bits
Compression mode : Lossy
Stream size : 570 MiB (7%)
Language : English
Audio #7
ID : 7
Format : AC-3
Format/Info : Audio Coding 3
Format profile : Dolby Digital
Mode extension : CM (complete main)
Codec ID : A_AC3
Duration : 2h 4mn
Bit rate mode : Constant
Bit rate : 192 Kbps
Channel(s) : 2 channels
Channel positions : Front: L R
Sampling rate : 48.0 KHz
Bit depth : 16 bits
Compression mode : Lossy
Stream size : 171 MiB (2%)
Title : Commentary with Director John Turtletaub and Actor Jon Voight
Language : English
Text #8
ID : 8
Format : UTF-8
Codec ID : S_TEXT/UTF8
Codec ID/Info : UTF-8 Plain Text
Title : Full
Language : Russian
Text #9
ID : 9
Format : UTF-8
Codec ID : S_TEXT/UTF8
Codec ID/Info : UTF-8 Plain Text
Title : Forced
Language : Russian
Text #10
ID : 10
Format : UTF-8
Codec ID : S_TEXT/UTF8
Codec ID/Info : UTF-8 Plain Text
Title : Commentary
Language : Russian
Text #11
ID : 11
Format : UTF-8
Codec ID : S_TEXT/UTF8
Codec ID/Info : UTF-8 Plain Text
Title : Full
Language : Ukrainian
Text #12
ID : 12
Format : UTF-8
Codec ID : S_TEXT/UTF8
Codec ID/Info : UTF-8 Plain Text
Title : Forced
Language : Ukrainian
Text #13
ID : 13
Format : ASS
Codec ID : S_TEXT/ASS
Codec ID/Info : Advanced Sub Station Alpha
Compression mode : Lossless
Language : English
Menu
00:00:00.000 : en:Chapter 01
00:04:59.340 : en:Chapter 02
00:08:27.214 : en:Chapter 03
00:16:55.723 : en:Chapter 04
00:22:01.945 : en:Chapter 05
00:26:03.395 : en:Chapter 06
00:36:47.038 : en:Chapter 07
00:43:02.913 : en:Chapter 08
00:50:14.010 : en:Chapter 09
00:55:27.907 : en:Chapter 10
01:00:01.389 : en:Chapter 11
01:11:22.987 : en:Chapter 12
01:20:14.017 : en:Chapter 13
01:24:42.744 : en:Chapter 14
01:30:41.269 : en:Chapter 15
01:40:07.334 : en:Chapter 16
01:47:17.889 : en:Chapter 17
01:57:20.533 : en:Chapter 18
02:04:32.214 : en:Chapter 19

Свернуть
Скриншоты
Изображение

Изображение

Изображение
Свернуть
Свернуть
Не в сети
Профиль  
Начать новую темуОтветить на тему  [ 1 сообщение ] 
Вы не можете начинать темы
Вы не можете отвечать на сообщения
Вы не можете редактировать свои сообщения
Вы не можете удалять свои сообщения