Правила форума

Здесь находятся раздачи, на которых не было полного источника (сида) более месяца.
Вы можете вернуть релиз в соответствующий раздел, для этого напишите нам в специальной теме и встаньте на раздачу.
Новые релизы, повторяющие релизы в архиве, повторами не считаются.
Начать новую темуОтветить на тему  [ 1 сообщение ] 
Сообщения
 Добавлено: 2011-11-13 16:31
Инквизитор
Аватара пользователя
Стаж: 8 лет 8 месяцев
Сообщений: 3753
Спасибок: 28360
Лайков: 9
Изображение

Соломенные псы / Straw Dogs

«The knock at the door meant the birth of one man and the death of seven others!»


Год выпуска: 1971/color]
[color=#000000]Страна:
США, Великобритания
Жанр: триллер, драма
Продолжительность: 01:57:54
Перевод: Многоголосый закадровый, Магия; Одноголосый закадровый, Г.Либергал; Одноголосый закадровый, Ю.Живов; Многоголосый закадровый, Ракурс (ЕА); Одноголосый закадровый, А.Михалев; Одноголосый закадровый, A.Гаврилов; Одноголосый закадровый, Ю.Толбин
Режиссер: Сэм Пекинпа
Сценарий: Дэвид Зелаг Гудман, Сэм Пекинпа, Гордон Уильямс
Продюсер: Дэниэл Мельник, Джеймс Сванн
Оператор: Джон Кокийон
В ролях: Дастин Хоффман, Сьюзен Джордж, Питер Вон, Т.П. МакКенна, Дел Хенни, Джим Нортон, Дональд Уэбстер, Кен Хатчинсон, Лен Джонс, Сэлли Томсетт
Описание: Застенчивый американский математик Дэвид переезжает в сельскую Англию на ферму, где родилась и выросла его сексапильная жена. Местное население настроено враждебно и ведет себя как стая мародеров из «Ночи живых мертвецов».

И робкий математик, убежденный противник насилия, больше всего на свете обожающий тишину и уединение, вынужден защищать свою честь с оружием в руках. А почуяв запах крови, он уже не может остановиться и начинает убивать, убивать, убивать...

Изображение
Бюджет: $3 251 794
Изображение
Релиз, раздача группы: Изображение, Изображение
Качество: BDRip 1080p
Формат: MKV
Видео: 1920x1040 at 23.976 fps, x264@L4.1, 2pass, ~14100 kbps avg
Аудио №1: Russian: 48 kHz, DTS, 3/2 (L,C,R,l,r) + LFE ch, ~1536.00 kbps avg |Многоголосый закадровый, Магия|
Аудио №2: Russian: 48 kHz, DTS, 3/2 (L,C,R,l,r) + LFE ch, ~1536.00 kbps avg |Одноголосый закадровый, Г.Либергал|
Аудио №3: Russian: 48 kHz, DTS, 3/2 (L,C,R,l,r) + LFE ch, ~1536.00 kbps avg |Одноголосый закадровый, Ю.Живов|
Аудио №4: Russian: 48 kHz, AC3, 2/0 (L,R) ch, ~192.00 kbps avg |Многоголосый закадровый, Ракурс (ЕА)|
Аудио №5: Russian: 48 kHz, AC3, 2/0 (L,R) ch, ~192.00 kbps avg |Одноголосый закадровый, А.Михалев|
Аудио №6: Russian: 48 kHz, AC3, 2/0 (L,R) ch, ~192.00 kbps avg |Одноголосый закадровый, A.Гаврилов|
Аудио №7: Russian: 48 kHz, AC3, 2/0 (L,R) ch, ~192.00 kbps avg |Одноголосый закадровый, Ю.Толбин|
Аудио №8: English: 48 kHz, DTS, 3/2 (L,C,R,l,r) + LFE ch, ~1536.00 kbps avg
Субтитры: English
"Знаете ли Вы, что..."
- В этом фильме дебютировал Кен Хатчинсон.
-Полный вариант фильма имеет хронометраж 118 минут.
- Название фильма взято авторами из известного изречения древнекитайского философа Лао Цзы: «Небо и Земля не милосердны — люди для них — лишь соломенные псы». Изречение восходит истоками к древней китайской традиции украшать религиозные праздники изображениями собак, выполненных из соломы, которые по окончанию церемонии выбрасывались или сжигались. В настоящее время, в частности в английском языке, термин соломенные псы является эвфемизмом для чего-то ненужного, либо созданного с единственной целью быть уничтоженным.
- На главную мужскую роль пробовались Дональд Сазерленд, Джек Николсон и Сидней Пуатье. На главную женскую — Диана Ригг, Шарлотта Ремплинг и Хелен Миррен. Выбранный на роль Дастин Хоффман вообще-то ненавидит насилие в кино, и как-то признался, что согласился на эту роль только из-за денег.
Свернуть
M.I.
Общее
Уникальный идентификатор         : 200742672511548619525882266244768542017 (0x9705A1E5A9C29E1A9F0D9CFCF5B32D41)
Полное имя                       : E:\Фильмы\Соломенные псы (Straw Dogs).1971.BDRip.1080p.-EbP.mkv
Формат                           : Matroska
Версия формата                   : Version 2
Размер файла                     : 17,6 Гбайт
Продолжительность                : 1 ч. 57 м.
Общий поток                      : 21,3 Мбит/сек
Дата кодирования                 : UTC 2011-10-26 15:11:07
Программа кодирования            : mkvmerge v5.0.1 ('Es ist Sommer') built on Oct  9 2011 11:55:43
Библиотека кодирования           : libebml v1.2.2 + libmatroska v1.3.0

Видео
Идентификатор                    : 1
Формат                           : AVC
Формат/Информация                : Advanced Video Codec
Профиль формата                  : High@L4.1
Параметр CABAC формата           : Да
Параметр ReFrames формата        : 4 кадра
Идентификатор кодека             : V_MPEG4/ISO/AVC
Продолжительность                : 1 ч. 57 м.
Битрейт                          : 14,1 Мбит/сек
Ширина                           : 1920 пикс.
Высота                           : 1040 пикс.
Соотношение сторон               : 16:9
Частота кадров                   : 23,976 кадр/сек
Цветовое пространство            : YUV
Подвыборка цветности             : 4:2:0
Битовая глубина                  : 8 бит
Тип развёртки                    : Прогрессивная
Бит/(Пиксели*Кадры)              : 0.294
Размер потока                    : 11,6 Гбайт (66%)
Заголовок                        : Straw Dogs
Библиотека кодирования           : x264 core 116 r2019 9cc407d
Настройки программы              : cabac=1 / ref=4 / deblock=1:-3:-3 / analyse=0x3:0x133 / me=umh / subme=9 / psy=1 / psy_rd=1.35:0.00 / mixed_ref=1 / me_range=16 / chroma_me=1 / trellis=2 / 8x8dct=1 / cqm=0 / deadzone=21,11 / fast_pskip=0 / chroma_qp_offset=-2 / threads=12 / sliced_threads=0 / nr=0 / decimate=0 / interlaced=0 / bluray_compat=0 / constrained_intra=0 / bframes=9 / b_pyramid=2 / b_adapt=2 / b_bias=0 / direct=3 / weightb=1 / open_gop=0 / weightp=2 / keyint=250 / keyint_min=23 / scenecut=40 / intra_refresh=0 / rc=crf / mbtree=0 / crf=18.8 / qcomp=0.60 / qpmin=10 / qpmax=51 / qpstep=4 / ip_ratio=1.40 / pb_ratio=1.30 / aq=1:0.75
Язык                             : English

Аудио #1
Идентификатор                    : 2
Формат                           : DTS
Формат/Информация                : Digital Theater Systems
Идентификатор кодека             : A_DTS
Продолжительность                : 1 ч. 57 м.
Вид битрейта                     : Постоянный
Битрейт                          : 1510 Кбит/сек
Каналы                           : 6 каналов
Расположение каналов             : Front: L C R, Side: L R, LFE
Частота                          : 48,0 КГц
Битовая глубина                  : 24 бит
Метод сжатия                     : С потерями
Размер потока                    : 1,24 Гбайт (7%)
Заголовок                        : DTS 5.1 @ 1536 kbps |MVO, Magia|
Язык                             : Russian

Аудио #2
Идентификатор                    : 3
Формат                           : DTS
Формат/Информация                : Digital Theater Systems
Идентификатор кодека             : A_DTS
Продолжительность                : 1 ч. 57 м.
Вид битрейта                     : Постоянный
Битрейт                          : 1510 Кбит/сек
Каналы                           : 6 каналов
Расположение каналов             : Front: L C R, Side: L R, LFE
Частота                          : 48,0 КГц
Битовая глубина                  : 24 бит
Метод сжатия                     : С потерями
Размер потока                    : 1,24 Гбайт (7%)
Заголовок                        : DTS 5.1 @ 1536 kbps |AVO, Libergal|
Язык                             : Russian

Аудио #3
Идентификатор                    : 4
Формат                           : DTS
Формат/Информация                : Digital Theater Systems
Идентификатор кодека             : A_DTS
Продолжительность                : 1 ч. 57 м.
Вид битрейта                     : Постоянный
Битрейт                          : 1510 Кбит/сек
Каналы                           : 6 каналов
Расположение каналов             : Front: L C R, Side: L R, LFE
Частота                          : 48,0 КГц
Битовая глубина                  : 24 бит
Метод сжатия                     : С потерями
Размер потока                    : 1,24 Гбайт (7%)
Заголовок                        : DTS 5.1 @ 1536 kbps |AVO, Jivov|
Язык                             : Russian

Аудио #4
Идентификатор                    : 5
Формат                           : AC-3
Формат/Информация                : Audio Coding 3
Расширение режима                : CM (complete main)
Идентификатор кодека             : A_AC3
Продолжительность                : 1 ч. 57 м.
Вид битрейта                     : Постоянный
Битрейт                          : 192 Кбит/сек
Каналы                           : 2 канала
Расположение каналов             : Front: L R
Частота                          : 48,0 КГц
Битовая глубина                  : 16 бит
Метод сжатия                     : С потерями
Размер потока                    : 162 Мбайт (1%)
Заголовок                        : AC3 2.0 @ 192 kbps |MVO, Rakurs (ЕА)|
Язык                             : Russian

Аудио #5
Идентификатор                    : 6
Формат                           : AC-3
Формат/Информация                : Audio Coding 3
Расширение режима                : CM (complete main)
Идентификатор кодека             : A_AC3
Продолжительность                : 1 ч. 57 м.
Вид битрейта                     : Постоянный
Битрейт                          : 192 Кбит/сек
Каналы                           : 2 канала
Расположение каналов             : Front: L R
Частота                          : 48,0 КГц
Битовая глубина                  : 16 бит
Метод сжатия                     : С потерями
Размер потока                    : 162 Мбайт (1%)
Заголовок                        : AC3 2.0 @ 192 kbps |AVO, Mihalev|
Язык                             : Russian

Аудио #6
Идентификатор                    : 7
Формат                           : AC-3
Формат/Информация                : Audio Coding 3
Расширение режима                : CM (complete main)
Идентификатор кодека             : A_AC3
Продолжительность                : 1 ч. 57 м.
Вид битрейта                     : Постоянный
Битрейт                          : 192 Кбит/сек
Каналы                           : 2 канала
Расположение каналов             : Front: L R
Частота                          : 48,0 КГц
Битовая глубина                  : 16 бит
Метод сжатия                     : С потерями
Размер потока                    : 162 Мбайт (1%)
Заголовок                        : AC3 2.0 @ 192 kbps |AVO, Gavrilov|
Язык                             : Russian

Аудио #7
Идентификатор                    : 8
Формат                           : AC-3
Формат/Информация                : Audio Coding 3
Расширение режима                : CM (complete main)
Идентификатор кодека             : A_AC3
Продолжительность                : 1 ч. 57 м.
Вид битрейта                     : Постоянный
Битрейт                          : 192 Кбит/сек
Каналы                           : 2 канала
Расположение каналов             : Front: L R
Частота                          : 48,0 КГц
Битовая глубина                  : 16 бит
Метод сжатия                     : С потерями
Размер потока                    : 162 Мбайт (1%)
Заголовок                        : AC3 2.0 @ 192 kbps |AVO, Tolbin|
Язык                             : Russian

Аудио #8
Идентификатор                    : 9
Формат                           : DTS
Формат/Информация                : Digital Theater Systems
Идентификатор кодека             : A_DTS
Продолжительность                : 1 ч. 57 м.
Вид битрейта                     : Постоянный
Битрейт                          : 1510 Кбит/сек
Каналы                           : 6 каналов
Расположение каналов             : Front: L C R, Side: L R, LFE
Частота                          : 48,0 КГц
Битовая глубина                  : 24 бит
Метод сжатия                     : С потерями
Размер потока                    : 1,24 Гбайт (7%)
Заголовок                        : DTS 5.1 @ 1536 kbps
Язык                             : English

Текст
Идентификатор                    : 10
Формат                           : UTF-8
Идентификатор кодека             : S_TEXT/UTF8
Идентификатор кодека/Информация  : UTF-8 Plain Text
Язык                             : English

Меню
00:00:00.000                     : en:00:00:00.000
00:04:38.945                     : en:00:04:38.945
00:10:46.604                     : en:00:10:46.604
00:20:06.372                     : en:00:20:06.372
00:21:20.988                     : en:00:21:20.988
00:26:45.229                     : en:00:26:45.229
00:33:11.323                     : en:00:33:11.323
00:40:09.157                     : en:00:40:09.157
00:43:00.036                     : en:00:43:00.036
00:46:22.405                     : en:00:46:22.405
00:52:56.256                     : en:00:52:56.256
00:56:23.463                     : en:00:56:23.463
01:06:35.200                     : en:01:06:35.200
01:11:52.934                     : en:01:11:52.934
01:17:23.597                     : en:01:17:23.597
01:21:40.437                     : en:01:21:40.437
01:27:58.398                     : en:01:27:58.398
01:35:07.535                     : en:01:35:07.535
01:38:34.283                     : en:01:38:34.283
01:45:38.332                     : en:01:45:38.332
Свернуть
Скриншоты
Изображение
Изображение
Изображение
Изображение
Свернуть
Не в сети
Профиль  
Начать новую темуОтветить на тему  [ 1 сообщение ] 
Вы не можете начинать темы
Вы не можете отвечать на сообщения
Вы не можете редактировать свои сообщения
Вы не можете удалять свои сообщения