Правила форума

Здесь находятся раздачи, на которых не было полного источника (сида) более месяца.
Вы можете вернуть релиз в соответствующий раздел, для этого напишите нам в специальной теме и встаньте на раздачу.
Новые релизы, повторяющие релизы в архиве, повторами не считаются.
Начать новую темуОтветить на тему  [ 1 сообщение ] 
Сообщения
 Добавлено: 2011-10-20 06:54
Top-releaser
Аватара пользователя
Стаж: 8 лет 7 месяцев
Сообщений: 1286
Спасибок: 3420
Лайков: 7
Изображение

Совсем не бабник / Cedar Rapids


«Today Is The First Day... Of The Rest Of His Weekend.»

Год выпуска: 2011
Страна: США
Жанр: комедия
Продолжительность: 01:26:56
Перевод: Субтитры, Профессиональный (многоголосый, закадровый)[лицензия]

Режиссер: Мигель Артета / Miguel Arteta
Сценарий: Фил Джонстон / Phil Johnston
Продюсер: Джим Бурк / Jim Burke, Александр Пэйн / Alexander Payne, Джим Тейлор / Jim Taylor, Брайан Белл / Brian Bell, Эд Хелмс / Ed Helms
Оператор: Чуи Чавез / Chuy Chávez
Композитор: Кристоф Бек / Christophe Beck

В ролях: Эд Хелмс (Tim Lippe), Джон Си Райли (Dean Ziegler), Энн Хеч (Joan Ostrowski-Fox), Исайя Уитлок мл. (Ronald Wilkes), Стивен Рут (Bill Krogstad), Кертвуд Смит (Orin Helgesson), Алиа Шокат (Bree), Томас Леннон (Roger Lemke), Роб Кордри (Gary), Майк О’Мэлли (Mike Pyle), Сигурни Уивер (Macy Vanderhei), Инга Р. Уилсон (Gwen Lemke)
Дублёры: Алексей Мясников (Tim Lippe), Пётр Иващенко (Dean Ziegler), Татьяна Шитова (Joan Ostrowski-Fox), Александр Груздев (Ronald Wilkes), Александр Новиков (Bill Krogstad), Олег Форостенко (Orin Helgesson), Наталья Грачева (Bree), Диомид Виноградов (Roger Lemke), Константин Карасик (Mike Pyle), Любовь Германова (Macy Vanderhei), Вероника Саркисова (Woman Getting Off Plane)

Описание: После того, как его коллега умирает от асфиксии во время акта самоудовлетворения, наивный провинциал из захолустья занимает его место в райцентре, теряя голову от соблазнов «большого города», постепенно выходя из раковины и раскрывая махинацию по отмывке денег с участием своего нанимателя.

Релиз: Изображение Раздача: Изображение


Сборы в США: $6 861 102
Сборы в России: $93 999
Качество: BDRip
Формат: Matroska
Видео: AVC; 1280x692 (1.850); 6391 kbps; 23,976 fps; 0,301 bpp
Аудио №1: Russian; AC3; 384 kbps; CBR; 6 channels
Аудио №2: English; DTS; 1509 kbps; CBR; 6 channels; 24 bit

Субтитры №1: Russian
Субтитры №2: Ukrainian
Субтитры №3: English
Субтитры №4: French
Субтитры №5: Spanish

MediaInfo
Общее
Уникальный идентификатор : 185788958370630910608372382145257234692 (0x8BC5A6DE15CF6F64866EC06681016104)
Полное имя : E:\Видео\Cedar.Rapids.2011.720p.BluRay.Rus.Eng.HDCLUB.mkv
Формат : Matroska
Версия формата : Version 2
Размер файла : 5,13 Гбайт
Продолжительность : 1 ч. 26 м.
Общий поток : 8453 Кбит/сек
Название фильма : Cedar Rapids (2011) - Release for HDCLUB
Дата кодирования : UTC 2011-10-19 12:48:38
Программа кодирования : mkvmerge v3.4.0 ('Rapunzel') built on May 15 2010 09:38:20
Библиотека кодирования : libebml v0.8.0 + libmatroska v0.9.0

Видео
Идентификатор : 1
Формат : AVC
Формат/Информация : Advanced Video Codec
Профиль формата : High@L4.1
Параметр CABAC формата : Да
Параметр ReFrames формата : 9 кадров
Параметры GOP формата : M=1, N=52
Идентификатор кодека : V_MPEG4/ISO/AVC
Продолжительность : 1 ч. 26 м.
Битрейт : 6560 Кбит/сек
Ширина : 1280 пикс.
Высота : 692 пикс.
Соотношение сторон : 1,850
Частота кадров : 23,976 кадр/сек
Цветовое пространство : YUV
Подвыборка цветности : 4:2:0
Битовая глубина : 8 бит
Тип развёртки : Прогрессивная
Бит/(Пиксели*Кадры) : 0.309
Размер потока : 3,88 Гбайт (76%)
Заголовок : Release for HDCLUB
Библиотека кодирования : x264 core 115 r2008 4c552d8
Настройки программы : cabac=1 / ref=9 / deblock=1:-3:-3 / analyse=0x3:0x113 / me=tesa / subme=10 / psy=1 / psy_rd=1.00:0.00 / mixed_ref=1 / me_range=16 / chroma_me=1 / trellis=2 / 8x8dct=1 / cqm=0 / deadzone=21,11 / fast_pskip=0 / chroma_qp_offset=-2 / threads=12 / sliced_threads=0 / nr=0 / decimate=0 / interlaced=0 / bluray_compat=0 / constrained_intra=0 / bframes=7 / b_pyramid=2 / b_adapt=2 / b_bias=0 / direct=3 / weightb=1 / open_gop=0 / weightp=2 / keyint=250 / keyint_min=23 / scenecut=40 / intra_refresh=0 / rc=2pass / mbtree=0 / bitrate=6560 / ratetol=1.0 / qcomp=0.60 / qpmin=0 / qpmax=69 / qpstep=4 / cplxblur=20.0 / qblur=0.5 / ip_ratio=1.40 / pb_ratio=1.30 / aq=1:0.70
Язык : English

Аудио #1
Идентификатор : 2
Формат : AC-3
Формат/Информация : Audio Coding 3
Расширение режима : CM (complete main)
Идентификатор кодека : A_AC3
Продолжительность : 1 ч. 26 м.
Вид битрейта : Постоянный
Битрейт : 384 Кбит/сек
Каналы : 6 каналов
Расположение каналов : Front: L C R, Side: L R, LFE
Частота : 48,0 КГц
Битовая глубина : 16 бит
Метод сжатия : С потерями
Размер потока : 239 Мбайт (5%)
Заголовок : AC3 5.1 @ 384 kbps - Многоголосый закадровый
Язык : Russian

Аудио #2
Идентификатор : 3
Формат : DTS
Формат/Информация : Digital Theater Systems
Идентификатор кодека : A_DTS
Продолжительность : 1 ч. 26 м.
Вид битрейта : Постоянный
Битрейт : 1510 Кбит/сек
Каналы : 6 каналов
Расположение каналов : Front: L C R, Side: L R, LFE
Частота : 48,0 КГц
Битовая глубина : 24 бит
Метод сжатия : С потерями
Задержка видео : 11 мс.
Размер потока : 939 Мбайт (18%)
Заголовок : DTS 5.1 @ 1536 kbps
Язык : English

Текст #1
Идентификатор : 4
Формат : UTF-8
Идентификатор кодека : S_TEXT/UTF8
Идентификатор кодека/Информация : UTF-8 Plain Text
Язык : Russian

Текст #2
Идентификатор : 5
Формат : UTF-8
Идентификатор кодека : S_TEXT/UTF8
Идентификатор кодека/Информация : UTF-8 Plain Text
Язык : Ukrainian

Текст #3
Идентификатор : 6
Формат : UTF-8
Идентификатор кодека : S_TEXT/UTF8
Идентификатор кодека/Информация : UTF-8 Plain Text
Язык : English

Текст #4
Идентификатор : 7
Формат : UTF-8
Идентификатор кодека : S_TEXT/UTF8
Идентификатор кодека/Информация : UTF-8 Plain Text
Язык : French

Текст #5
Идентификатор : 8
Формат : UTF-8
Идентификатор кодека : S_TEXT/UTF8
Идентификатор кодека/Информация : UTF-8 Plain Text
Язык : Spanish

Меню
00:00:00.000 : en:00:00:00.000
00:03:17.697 : en:00:03:17.697
00:05:17.817 : en:00:05:17.817
00:07:10.138 : en:00:07:10.138
00:11:26.227 : en:00:11:26.227
00:13:17.046 : en:00:13:17.046
00:16:54.680 : en:00:16:54.680
00:19:49.313 : en:00:19:49.313
00:23:06.385 : en:00:23:06.385
00:26:17.159 : en:00:26:17.159
00:27:57.926 : en:00:27:57.926
00:30:59.149 : en:00:30:59.149
00:35:17.032 : en:00:35:17.032
00:37:24.325 : en:00:37:24.325
00:41:44.502 : en:00:41:44.502
00:47:02.069 : en:00:47:02.069
00:51:11.402 : en:00:51:11.402
00:57:30.864 : en:00:57:30.864
01:01:03.243 : en:01:01:03.243
01:06:17.724 : en:01:06:17.724
01:12:24.549 : en:01:12:24.549
01:16:11.901 : en:01:16:11.901
01:20:27.156 : en:01:20:27.156
01:23:05.856 : en:01:23:05.856

Свернуть

Скриншоты
Изображение

Изображение

Изображение

Изображение
Свернуть
Не в сети
Профиль  
Начать новую темуОтветить на тему  [ 1 сообщение ] 
Вы не можете начинать темы
Вы не можете отвечать на сообщения
Вы не можете редактировать свои сообщения
Вы не можете удалять свои сообщения