Правила форума

Здесь находятся раздачи, на которых не было полного источника (сида) более месяца.
Вы можете вернуть релиз в соответствующий раздел, для этого напишите нам в специальной теме и встаньте на раздачу.
Новые релизы, повторяющие релизы в архиве, повторами не считаются.
Начать новую темуОтветить на тему  [ 1 сообщение ] 
Сообщения
 Добавлено: 2012-10-09 03:16
Руководитель релиз-группы
Аватара пользователя
Стаж: 7 лет 5 месяцев
Возраст: 31
Сообщений: 3406
Спасибок: 46729
Лайков: 5
Изображение

Средь бела дня
The Cold Light of Day


Год выпуска: 2011
Страна: США, Испания
Слоган: «Будь осторожен даже с теми, кому доверяешь»
Жанр: боевик, триллер
Продолжительность: 01:33:33
Перевод: Профессиональный (полное дублирование) [лицензия]
Режиссер: Мабрук Эль Мекри
Сценарий: Скотт Вайпер, Джон Петро
Продюсер: Тревор Мэйси, Марк Д. Эванс, Стивен Зеллиан, Скотт Вайпер, Хесус Мартинес Асенсио
Оператор: Реми Адефаразин
Композитор: Лукас Видал
В ролях: Генри Кавилл, Сигурни Уивер, Вероника Эчеги, Рошди Зем, Джозеф Моул, Оскар Хаенада, Кэролайн Гудолл, Брюс Уиллис, Рафи Гаврон, Эмма Хэмилтон, Джим Пиддок, Майкл Бадд
Сборы в США: $3 763 583
Сборы в России: $901 291
Сборы в мире: $16 863 583
Описание: Испания, море, яхта - отпуск с поднадоевшей молодому Уиллу Шоу компанией родственников... Никто не мог предположить, что уже через несколько часов палуба яхты обагрится кровью, а члены семьи Шоу станут заложниками в руках неизвестных. В поисках родных Уилл невольно узнает о государственном заговоре и раскрывает тайны своего отца. У парня всего несколько часов, чтобы спасти семью и страну от гибели.
Изображение
MPAA: Изображение
Мировая премьера: 4 апреля 2012
Релиз на DVD: 25 сентября 2012, «Парадиз Медиа»
Релиз на Blu-ray: 25 сентября 2012, «Парадиз Медиа»
Релиз: Изображение Раздача группы: Изображение
Качество: BDRip, 720p [исходник: Blu-Ray Remux, 1080p]
Формат: Matroska
Видео: AVC; 1280x544 (2.35:1); 8464 Kbps; 24 fps; 0,507 bit/pixel
Аудио №1: AC3; 640 Kbps; CBR; 6 ch Russian
Аудио №2: AC3; 640 Kbps; CBR; 6 ch English
Субтитры: русские, английские
Сохранены оригинальные чаптеры как на Blu-ray
Изображение
mediainfo
Формат : Matroska
Версия формата : Version 2
Размер файла : 6,52 Гбайт
Продолжительность : 1 ч. 33 м.
Общий поток : 9943 Кбит/сек
Название фильма : by Askboy
Дата кодирования : UTC 2012-10-08 22:46:38
Программа кодирования : mkvmerge v3.2.0 ('Beginnings') built on Feb 12 2010 16:46:17
Библиотека кодирования : libebml v0.7.9 + libmatroska v0.8.1

Видео
Идентификатор : 1
Формат : AVC
Формат/Информация : Advanced Video Codec
Профиль формата : High@L4.1
Параметр CABAC формата : Да
Параметр ReFrames формата : 10 кадров
Идентификатор кодека : V_MPEG4/ISO/AVC
Продолжительность : 1 ч. 33 м.
Битрейт : 8699 Кбит/сек
Ширина : 1280 пикселей
Высота : 544 пикселя
Соотношение сторон : 2,35:1
Частота кадров : 24,000 кадра/сек
Цветовое пространство : YUV
Субдискретизация насыщенности : 4:2:0
Битовая глубина : 8 бит
Тип развёртки : Прогрессивная
Бит/(Пиксели*Кадры) : 0.521
Размер потока : 5,55 Гбайт (85%)
Библиотека кодирования : x264 core 116 r2074 2641b9e
Настройки программы : cabac=1 / ref=10 / deblock=1:-3:-3 / analyse=0x3:0x133 / me=umh / subme=11 / psy=1 / psy_rd=1.10:0.00 / mixed_ref=1 / me_range=32 / chroma_me=1 / trellis=2 / 8x8dct=1 / cqm=0 / deadzone=21,11 / fast_pskip=0 / chroma_qp_offset=-2 / threads=12 / sliced_threads=0 / nr=0 / decimate=1 / interlaced=0 / bluray_compat=0 / constrained_intra=0 / bframes=10 / b_pyramid=2 / b_adapt=2 / b_bias=0 / direct=3 / weightb=1 / open_gop=0 / weightp=2 / keyint=250 / keyint_min=24 / scenecut=40 / intra_refresh=0 / rc_lookahead=80 / rc=2pass / mbtree=1 / bitrate=8699 / ratetol=1.0 / qcomp=0.60 / qpmin=10 / qpmax=51 / qpstep=4 / cplxblur=20.0 / qblur=0.5 / ip_ratio=1.40 / aq=1:0.80
Язык : English

Аудио #1
Идентификатор : 2
Формат : AC-3
Формат/Информация : Audio Coding 3
Расширение режима : CM (complete main)
Идентификатор кодека : A_AC3
Продолжительность : 1 ч. 33 м.
Вид битрейта : Постоянный
Битрейт : 640 Кбит/сек
Каналы : 6 каналов
Расположение каналов : Front: L C R, Side: L R, LFE
Частота : 48,0 КГц
Битовая глубина : 16 бит
Метод сжатия : С потерями
Размер потока : 430 Мбайт (6%)
Язык : Russian

Аудио #2
Идентификатор : 3
Формат : AC-3
Формат/Информация : Audio Coding 3
Расширение режима : CM (complete main)
Идентификатор кодека : A_AC3
Продолжительность : 1 ч. 33 м.
Вид битрейта : Постоянный
Битрейт : 640 Кбит/сек
Каналы : 6 каналов
Расположение каналов : Front: L C R, Side: L R, LFE
Частота : 48,0 КГц
Битовая глубина : 16 бит
Метод сжатия : С потерями
Размер потока : 430 Мбайт (6%)
Язык : English

Текст #1
Идентификатор : 4
Формат : UTF-8
Идентификатор кодека : S_TEXT/UTF8
Идентификатор кодека/Информация : UTF-8 Plain Text
Язык : Russian

Текст #2
Идентификатор : 5
Формат : UTF-8
Идентификатор кодека : S_TEXT/UTF8
Идентификатор кодека/Информация : UTF-8 Plain Text
Язык : English

Меню
00:00:00.000 : en:Chapter 1
00:08:41.000 : en:Chapter 2
00:15:49.832 : en:Chapter 3
00:22:52.458 : en:Chapter 4
00:32:26.125 : en:Chapter 5
00:41:09.583 : en:Chapter 6
00:51:29.666 : en:Chapter 7
00:56:48.750 : en:Chapter 8
01:03:23.333 : en:Chapter 9
01:11:06.457 : en:Chapter 10
01:16:06.875 : en:Chapter 11
01:25:11.375 : en:Chapter 12

Свернуть
"Знаете ли Вы, что..."
  • Когда Уилл возвращается к лодке после похода в город, он несет пластиковый рюкзак. Когда он взбирается на холм, чтобы увидеть парусник, рюкзак исчезает. Когда он находит парусник и плывет к нему, рюкзак снова на нем.
Свернуть
Скриншоты

Изображение

Изображение

Изображение

Изображение

Изображение

Изображение

Изображение

Изображение

Изображение

Изображение

Изображение
Свернуть
Не в сети
Профиль  
Начать новую темуОтветить на тему  [ 1 сообщение ] 
Вы не можете начинать темы
Вы не можете отвечать на сообщения
Вы не можете редактировать свои сообщения
Вы не можете удалять свои сообщения