Правила форума

Здесь находятся раздачи, на которых не было полного источника (сида) более месяца.
Вы можете вернуть релиз в соответствующий раздел, для этого напишите нам в специальной теме и встаньте на раздачу.
Новые релизы, повторяющие релизы в архиве, повторами не считаются.
Начать новую темуОтветить на тему  [ Сообщений: 3 ] 
Сообщения
 Добавлено: 2011-06-16 22:40
Книголюб
Аватара пользователя
Стаж: 7 лет 2 месяца
Сообщений: 2823
Спасибок: 48826
Лайков: 73
Стоунхендж Апокалипсис
Stonehenge Apocalypse
Изображение


Год выпуска: 2010
Страна: США, Канада (Cinetel Films, Reel One Entertainment, Corus Entertainment)
Жанр: фантастика,
Продолжительность: 01:30:48
Перевод: Профессиональное (многоголосое)

Режиссёр: Пол Зиллер
Сценарист: Брэд Абрахам, Пол Зиллер
Продюсер: Джон Принц, Жози Бернард, Билл Берри
Оператор: Энтони С. Метчи
В ролях: Лауро Чартрэнд, Миша Коллинз, Долорес Дрэйк, Хилл Харпер, Торри Хиггинсон, Адриан Холмс, Нимет Каньджи, Майкл Копса, Колин Лоуренс
Описание: Когда гигантские камни Стоунхенджа начинают двигаться, и катаклизмы происходят на всей Земле, лишь ведущий ток-шоу на радио, который является экспертом в уфологии, выясняет, что древний памятник — на самом деле внеземная технология.
Рейтинг MPAA: Рейтинг PG-13 (Дети до 13 лет допускаются на фильм только с родителями)
Мировая премьера: 12 июня 2010
Изображение 4.621 232
Изображение 4.1/10

Качество:BDRip 720p
Формат: MKV
Видео кодек: H264
Аудио кодек: AC3 (Dolby Digital)
Видео: 1280x720 23.98fps, 0.283Bits/Pixel, 6 251 Kbps
Аудио: Russian: AC3, 192 kb/s (2 ch) / English: AC3, 640 kb/s (6 ch)
Субтитры: English
MediaInfo
бщее
Уникальный идентификатор : 192626816687913830061244227494598982838 (0x90EA934FB76055E3991FE0013A88BCB6)
Полное имя : D:\MoyTorrent\Stonehenge.Apocalypse.2010.BDRip.720pt.mkv
Формат : Matroska
Размер файла : 4,49 Гбайт
Продолжительность : 1 ч. 30 м.
Общий поток : 7080 Кбит/сек
Название фильма : Stonehenge.Apocalypse.2010.P.BDRip.720p -TVB- UNIONGANG
Дата кодирования : UTC 2011-06-11 18:13:10
Программа кодирования : mkvmerge v4.8.0 ('I Got The...') сборка от May 24 2011 03:12:58
Библиотека кодирования : libebml v1.2.0 + libmatroska v1.1.0

Видео
Идентификатор : 1
Формат : AVC
Формат/Информация : Advanced Video Codec
Профиль формата : High@L4.1
Параметр CABAC формата : Да
Параметр ReFrames формата : 5 кадров
Параметры GOP формата : M=4, N=55
Идентификатор кодека : V_MPEG4/ISO/AVC
Продолжительность : 1 ч. 30 м.
Битрейт : 6251 Кбит/сек
Ширина : 1280 пикс.
Высота : 720 пикс.
Соотношение сторон : 16:9
Частота кадров : 23,976 кадр/сек
Цветовое пространство : YUV
Подвыборка цветности : 4:2:0
Битовая глубина : 8 бит
Тип развёртки : Прогрессивная
Бит/(Пиксели*Кадры) : 0.283
Размер потока : 3,88 Гбайт (86%)
Заголовок : Stonehenge.Apocalypse.2010.P.BDRip.720p.UNIONGANG
Библиотека кодирования : x264 core 115 r1995 c1e60b9
Настройки программы : cabac=1 / ref=5 / deblock=1:0:0 / analyse=0x3:0x133 / me=umh / subme=7 / psy=1 / psy_rd=1.00:0.00 / mixed_ref=1 / me_range=16 / chroma_me=1 / trellis=1 / 8x8dct=1 / cqm=0 / deadzone=21,11 / fast_pskip=0 / chroma_qp_offset=-2 / threads=12 / sliced_threads=0 / nr=0 / decimate=1 / interlaced=0 / bluray_compat=0 / constrained_intra=0 / bframes=3 / b_pyramid=2 / b_adapt=1 / b_bias=0 / direct=1 / weightb=1 / open_gop=0 / weightp=2 / keyint=250 / keyint_min=23 / scenecut=40 / intra_refresh=0 / rc_lookahead=40 / rc=2pass / mbtree=1 / bitrate=6251 / ratetol=1.0 / qcomp=0.60 / qpmin=0 / qpmax=69 / qpstep=4 / cplxblur=20.0 / qblur=0.5 / ip_ratio=1.40 / aq=1:1.00
Язык : English

Аудио #1
Идентификатор : 2
Формат : AC-3
Формат/Информация : Audio Coding 3
Расширение режима : CM (complete main)
Идентификатор кодека : A_AC3
Продолжительность : 1 ч. 30 м.
Вид битрейта : Постоянный
Битрейт : 192 Кбит/сек
Каналы : 2 канала
Расположение каналов : Front: L R
Частота : 48,0 КГц
Битовая глубина : 16 бит
Метод сжатия : С потерями
Задержка видео : 5 с. 0 мс.
Размер потока : 125 Мбайт (3%)
Заголовок : MVO
Язык : Russian

Аудио #2
Идентификатор : 3
Формат : AC-3
Формат/Информация : Audio Coding 3
Расширение режима : CM (complete main)
Идентификатор кодека : A_AC3
Продолжительность : 1 ч. 30 м.
Вид битрейта : Постоянный
Битрейт : 640 Кбит/сек
Каналы : 6 каналов
Расположение каналов : Front: L C R, Side: L R, LFE
Частота : 48,0 КГц
Битовая глубина : 16 бит
Метод сжатия : С потерями
Задержка видео : 4 с. 240 мс.
Размер потока : 416 Мбайт (9%)
Язык : English

Текст
Идентификатор : 4
Формат : UTF-8
Идентификатор кодека : S_TEXT/UTF8
Идентификатор кодека/Информация : UTF-8 Plain Text
Заголовок : SDH
Язык : English


Свернуть

Скриншоты
Изображение
Изображение
Изображение
Изображение
Изображение
Свернуть


Последний раз редактировалось coldun 2011-06-19 13:18, всего редактировалось 1 раз.
Не в сети
Профиль  
 Добавлено: 2011-06-17 21:31 (спустя 22 часа)
Аватара пользователя
Стаж: 8 лет 3 месяца
Возраст: 43
Сообщений: 3290
Спасибок: 21012
Лайков: 3
coldun
Внимание: Для DVD и HD-разделов необходимы развернутые технические данные:
Для DVD: Отчет DVDInfo (под спойлером)
DVDInfo

Cкрытый текст
Изображение
Свернуть
Назначение - быстрое получение информации о DVD-диске или отдельных его title-set'ах.
Использование:
- запустить программу и в открывшемся окне выбора директории выбрать VIDEO_TS диру на диске или на харде, где находится VIDEO_TS.IFO.
- дать в командной строке параметром путь к директории, где лежит VIDEO_TS.IFO на диске или на харде
- дать в командной строке полный путь к любому IFO-файлу
- воспользоваться расширением эксплорера и выбрать новый пункт в выпадающем по правой кнопке меню файла.
- ассоциировать в TotalCommander-е с расширением IFO на кнопку Alt+F3 (ну или любую другую в любом другом файл-менеджере)
- перенаправить информацию в текстовый файл, задав определенные параметры в командной строке (список параметров выдается если задать параметр /?) и поставить в конце ">file.txt". [Внимание! Программа ничего не выдает на вызывающую ее консоль, это не консольная аппликация. Данный режим только для перенаправления информации в файл.]
- использовать информационный модуль, сделанный в виде ActiveX-компоненты и который собственно и вытаскивает инфу из файлов, в своей собственной программе smileold.gif

Если программа получит путь к VIDEO_TS.IFO, то покажет инфу по всем найденным VTS, относящемся к выбранному ДВД. Если же к конкретному VTS.IFO - то только о нем.

Программа работает только с IFO-файлами, не делая анализа VOB-ов, поэтому информация типа делеев дорожеи или других подробностей, нее относящихся к IFO - не выдает. Короче то, что она показывает, можно получить и в IfoEdit-е winkold.gif.

Обновление версии программы до 1.1.0!
* Окно программы стало Drag-n-Drop-ным, то есть принимает дроп-нутый на него линк на файл.
* Окно программы опционально может быть "Always on top".
* Сохраняется последнее местоположение окна программы и в следующий раз оно открывается на том же месте (опционально).
* Максимальное количество возможных PGC увеличено с 25 до 100.
* Автоматически из списка VTS выбирается тот, который содержит максимально длинный видеофрагмент.
* Показываются VTS PUOs (Prohibited User Operations - если они имеются конечно).
* Для каждого VTS показываются длины входящих в него PGC (если их больше одного).
* Исправлено некорректное определение DTS дорожки.
* Более корректно показывается количество аудио и видеодорожек (в тех сборках, которые сделаны с несоблюдением соответствия количества в разных IFO файлах).
* Исправлено - не открывалось окно выбора при нажатии Ctrl+O.
* Изменено - при отказе от первоначального выбора диска/директории окно закрывалось, теперь остается открытым с отсутствующей информацией.

Скачать с офсайта
Свернуть

Для HD: Отчет BDInfo→ (после нажатия кнопки «scan bitrates» и окончания сканирования) или MediaInfo→ ( весь текст из режима view (вид) → text (текст).) (под спойлером)
исправьте пожалуйста
Как все исправите, то сообщите пожалуйста в ЛС мне или любому модератору видео. Обязательно со ссылкой на релиз :)
_________________
Изображение
Не в сети
Профиль  
 Добавлено: 2011-07-08 12:07 (спустя 20 дней)
Стаж: 5 лет 10 месяцев
Сообщений: 280
Лайков: 8
Ну что можно сказать об этом фильме.....мдя..да ни чего нельзя сказать об этом фильме..графика-уровень 90-х годов...эффекты А.Роу или А.Птушко лучше делали.....в общем рейтинг 1 ...или меньше...да...и еще скучно и избито всё.
Не в сети
Профиль  
Начать новую темуОтветить на тему  [ Сообщений: 3 ] 
Вы не можете начинать темы
Вы не можете отвечать на сообщения
Вы не можете редактировать свои сообщения
Вы не можете удалять свои сообщения