Правила форума

Здесь находятся раздачи, на которых не было полного источника (сида) более месяца.
Вы можете вернуть релиз в соответствующий раздел, для этого напишите нам в специальной теме и встаньте на раздачу.
Новые релизы, повторяющие релизы в архиве, повторами не считаются.
Начать новую темуОтветить на тему  [ Сообщений: 9 ] 
Сообщения
 Добавлено: 2014-11-15 19:40
DVD Release Group
Аватара пользователя
Стаж: 7 лет 1 месяц
Сообщений: 3544
Спасибок: 246919
Лайков: 1018
Стражи Галактики

Guardians of the Galaxy


Изображение


Год выпуска: 2014
Страна: США
Жанр: Фантастика, боевик, приключения
Продолжительность: 02:00:51
Перевод: Профессиональный (полное дублирование)
Субтитры: Английские
Режиссер: Джеймс Ганн
В ролях: Крис Прэтт, Зои Салдана, Дэйв Батиста, Вин Дизель, Брэдли Купер, Ли Пейс, Майкл Рукер, Карен Гиллан, Джимон Хонсу, Джон Си Райли
Описание: Питер Квилл становится жертвой охотников за головами после кражи таинственной сферы, за которой охотился Ронан- могущественный злодей, полный амбиций и угрожающий целой вселенной. Чтобы одолеть Ронана, Питеру приходится объединиться с квартетом отбросов: вооружённым до зубов Ракетным енотом, древоподобным гуманоидом Грутом, смертельно опасной и загадочной Гаморой и мстительным Драксом Разрушителем. Но когда Питер обнаруживает истинную силу сферы и узнаёт насколько она опасна для космоса, он должен сделать всё возможное, чтобы сплотить всех членов команды для последнего противостояния и вернуть баланс во всей Галактике.
Изображение
Качество: BDRip 1080p
Формат: MKV
Видео кодек: H.264
Аудио кодек: AC3, DTS
Видео: 1920x800 23.98fps 13.0Mbps
Аудио:
Аудио Rus: AC3 48kHz 6ch 384kbps
Аудио Eng: DTS 48kHz 6ch 1510kbps
"MediaInfo"
Format : Matroska
Format version : Version 4 / Version 2
File size : 13.1 GiB
Duration : 2h 1mn
Overall bit rate : 15.4 Mbps
Encoded date : UTC 2014-11-17 20:04:13
Writing application : mkvmerge v6.5.0 ('Isn't she lovely')
built on Oct 20 2013 12:50:05
Writing library : libebml v1.3.0 + libmatroska v1.4.1
DURATION : 02:00:51.232000000
NUMBER_OF_FRAMES : 226601
NUMBER_OF_BYTES : 174029568
_STATISTICS_WRITING_APP : mkvmerge v7.3.0 ('Nouages')
64bit built on Oct 22 2014 18:53:34
_STATISTICS_WRITING_DATE_UTC : 2014-11-15 20:37:43
_STATISTICS_TAGS : BPS DURATION NUMBER_OF_FRAMES NUMBER_OF_BYTES

Video
ID : 1
Format : AVC
Format/Info : Advanced Video Codec
Format profile : High@L4.1
Format settings, CABAC : Yes
Format settings, ReFrames : 5 frames
Codec ID : V_MPEG4/ISO/AVC
Duration : 2h 1mn
Bit rate : 13.0 Mbps
Width : 1 920 pixels
Height : 800 pixels
Display aspect ratio : 2.40:1
Frame rate : 23.976 fps
Color space : YUV
Chroma subsampling : 4:2:0
Bit depth : 8 bits
Scan type : Progressive
Bits/(Pixel*Frame) : 0.354
Stream size : 11.0 GiB (85%)
Writing library : x264 core 142 r2479kMod dd79a61
Encoding settings : cabac=1 / ref=5 / deblock=1:-3:-3 / analyse=0x3:0x133
/ me=umh / subme=11 / psy=1 / fade_compensate=0.00 / psy_rd=1.03:0.00 / mixed_ref=1 / me_range=48
/ chroma_me=1 / trellis=2 / 8x8dct=1 / cqm=0 / deadzone=21,11 / fast_pskip=0 / chroma_qp_offset=-2
/ threads=18 / lookahead_threads=3 / sliced_threads=0 / nr=0 / decimate=1 / interlaced=0
/ bluray_compat=0 / constrained_intra=0 / fgo=0 / bframes=9 / b_pyramid=2 / b_adapt=2
/ b_bias=0 / direct=3 / weightb=1 / open_gop=0 / weightp=2 / keyint=250 / keyint_min=23 / scenecut=40
/ intra_refresh=0 / rc_lookahead=40 / rc=crf / mbtree=0 / crf=15.8000 / qcomp=0.65 / qpmin=0
/ qpmax=69 / qpstep=4 / vbv_maxrate=50000 / vbv_bufsize=62500 / crf_max=0.0 / nal_hrd=none
/ filler=0 / ip_ratio=1.20 / pb_ratio=1.10 / aq=1:0.81
Language : English
Default : Yes
Forced : No
DURATION : 02:00:51.161000000
NUMBER_OF_FRAMES : 173854
NUMBER_OF_BYTES : 12135952661
_STATISTICS_WRITING_APP : mkvmerge v7.3.0 ('Nouages') 64bit built on Oct 22 2014 18:53:34
_STATISTICS_WRITING_DATE_UTC : 2014-11-15 20:37:43
_STATISTICS_TAGS : BPS DURATION NUMBER_OF_FRAMES NUMBER_OF_BYTES

Audio #1
ID : 2
Format : AC-3
Format/Info : Audio Coding 3
Mode extension : CM (complete main)
Codec ID : A_AC3
Duration : 2h 1mn
Bit rate mode : Constant
Bit rate : 384 Kbps
Channel(s) : 6 channels
Channel positions : Front: L C R, Side: L R, LFE
Sampling rate : 48.0 KHz
Bit depth : 16 bits
Compression mode : Lossy
Stream size : 333 MiB (2%)
Language : Russian
Default : Yes
Forced : No

Audio #2
ID : 3
Format : DTS
Format/Info : Digital Theater Systems
Codec ID : A_DTS
Duration : 2h 1mn
Bit rate mode : Constant
Bit rate : 1 510 Kbps
Channel(s) : 6 channels
Channel positions : Front: L C R, Side: L R, LFE
Sampling rate : 48.0 KHz
Bit depth : 24 bits
Compression mode : Lossy
Stream size : 1.28 GiB (10%)
Language : English
Default : No
Forced : No

Audio #3
ID : 4
Format : AC-3
Format/Info : Audio Coding 3
Mode extension : CM (complete main)
Codec ID : A_AC3
Duration : 2h 1mn
Bit rate mode : Constant
Bit rate : 192 Kbps
Channel(s) : 2 channels
Channel positions : Front: L R
Sampling rate : 48.0 KHz
Bit depth : 16 bits
Compression mode : Lossy
Stream size : 166 MiB (1%)
Language : English
Default : No
Forced : No

Menu
00:00:00.000 : en:00:00:00.000
00:04:05.704 : en:00:04:05.704
00:11:21.806 : en:00:11:21.806
00:15:21.712 : en:00:15:21.712
00:20:54.420 : en:00:20:54.420
00:27:11.213 : en:00:27:11.213
00:33:58.828 : en:00:33:58.828
00:44:28.291 : en:00:44:28.291
00:50:53.008 : en:00:50:53.008
00:55:17.564 : en:00:55:17.564
00:59:45.207 : en:00:59:45.207
01:06:06.921 : en:01:06:06.921
01:14:46.023 : en:01:14:46.023
01:22:20.644 : en:01:22:20.644
01:26:29.726 : en:01:26:29.726
01:30:23.877 : en:01:30:23.877
01:35:58.378 : en:01:35:58.378
01:40:46.749 : en:01:40:46.749
01:47:35.366 : en:01:47:35.366
01:53:16.623 : en:01:53:16.623
02:00:10.829 : en:02:00:10.829
Свернуть

"Скриншоты"
Изображение
Изображение
Изображение
Изображение
Изображение
Изображение
Свернуть


Последний раз редактировалось rastor 2014-11-18 06:30, всего редактировалось 1 раз.
 Мих@ нравится это.
В сети
Профиль  
 Добавлено: 2014-11-15 21:45 (спустя 2 часа 4 минуты)
Стаж: 7 лет 8 месяцев
Сообщений: 10
Лайков: 2
Спасибо!))) Проверим!)


Ждал очень!!!
Не в сети
Профиль  
 Добавлено: 2014-11-16 00:37 (спустя 2 часа 52 минуты)
Top-seeder
Аватара пользователя
Стаж: 6 лет 5 месяцев
Сообщений: 313
оооо спасибки , долго ждал в хорошем качестве :-)
_________________
скорость
Изображение
Свернуть
Не в сети
Профиль  
 Добавлено: 2014-11-16 13:05 (спустя 12 часов)
Аватара пользователя
Стаж: 9 лет 1 месяц
Возраст: 31
Сообщений: 982
Спасибок: 1800
Лайков: 17
Наконец-то!!!!!!!!!!!
Не в сети
Профиль  
 Добавлено: 2014-11-16 13:37 (спустя 32 минуты)
Аватара пользователя
Стаж: 8 лет 9 месяцев
Возраст: 32
Сообщений: 378
Спасибок: 1
Лайков: 75
Спасибо ))!!!
_________________
Всё пройдет, и это, тоже.
Я видел пьяниц с мудрыми глазами. И падших женщин с ликом чистоты. Я знаю сильных, что взахлёб рыдали. И слабых, что несут кресты. Не осуждай за то, в чём не уверен. Не обещай, если решил солгать. Не проверяй, когда уже доверил. И не дари, планируя отнять.
В сети
Профиль  
 Добавлено: 2014-11-16 14:40 (спустя 1 час 3 минуты)
Аватара пользователя
Стаж: 8 лет
Сообщений: 128
Спасибок: 409
Лайков: 25
А звучок то так себе, посредственный...
Не в сети
Профиль  
 Добавлено: 2014-11-17 17:28 (спустя 1 день 2 часа)
Стаж: 4 года
Сообщений: 10
Сабов нет?
Не в сети
Профиль  
 Добавлено: 2014-11-18 06:31 (спустя 13 часов)
DVD Release Group
Аватара пользователя
Стаж: 7 лет 1 месяц
Сообщений: 3544
Спасибок: 246919
Лайков: 1018
Торрент-файл обновлен на BDRip 1080p ITunes.
В сети
Профиль  
 Добавлено: 2014-11-18 17:00 (спустя 10 часов)
Аватара пользователя
Стаж: 4 года 10 месяцев
Возраст: 29
Сообщений: 86
Лайков: 1
уффф спс тыкнул
Не в сети
Профиль  
Начать новую темуОтветить на тему  [ Сообщений: 9 ] 
Вы не можете начинать темы
Вы не можете отвечать на сообщения
Вы не можете редактировать свои сообщения
Вы не можете удалять свои сообщения