Правила форума

Здесь находятся раздачи, на которых не было полного источника (сида) более месяца.
Вы можете вернуть релиз в соответствующий раздел, для этого напишите нам в специальной теме и встаньте на раздачу.
Новые релизы, повторяющие релизы в архиве, повторами не считаются.
Начать новую темуОтветить на тему  [ Сообщений: 2 ] 
Сообщения
 Добавлено: 2011-09-21 03:05
DVD Release Group
Аватара пользователя
Стаж: 7 лет 1 месяц
Сообщений: 3564
Спасибок: 247503
Лайков: 1020
Страшно красив

Beastly

«Кто он на самом деле...»


Изображение


Год выпуска: 2011
Страна: США, CBS Films
Жанр: Фэнтези, драма, мелодрама
Продолжительность: 01:26:09
Перевод: Профессиональный (полное дублирование) Лицензия
Субтитры: Английские
Режиссер: Даниел Барнз
В ролях: Алекс Петтифер, Джастин Брэдли, Мэри-Кейт Олсен, Дакота Джонсон, Эрик Кнудсен, Ванесса Энн Хадженс, Карл Грабошас, Питер Краузе, Лиза Гэй Хэмилтон, Джонатан Дубски
Роли дублировали: Николай Быстров, Татьяна Шитова, Лина Иванова, Инна Королёва, Михаил Тихонов
Описание: Очередная интерпретация классической истории «Красавицы и чудовища», перемещающая зрителя в современный Манхэттен. В нём живёт изуродованный наложенным проклятьем юноша Кайл, который хочет найти любовь. Если он обретёт вторую половинку, его прежняя сказочная внешность снова вернётся к нему.
Премьера (мир) ................. 3 марта 2011
Премьера (РФ) ................. 11 августа 2011, «UPI»
Релиз на DVD ................. 22 сентября 2011, «CP-Digital»
КиноПоиск: 5.712 (6829)
IMDb: 5.00 (12177)
Sample:
http://multi-up.com/561346
Качество: BDRip 720p [EbP]
Формат: MKV
Видео кодек: H.264
Аудио кодек: DTS
Видео: 1280x544 (2.35:1), 23.976 fps, 6 000Kbps, 0.359 Qf
Аудио:
Аудио Rus: 48.0 KHz, DTS, 6 channels, 1 510 Kbps
Аудио Eng: 48.0 KHz, DTS, 6 channels, 1 510 Kbps
"MediaInfo"

General
Complete name : Beastly.2011.720p.BluRay.DD5.1.x264-EbP.mkv
Format : Matroska
File size : 5.43 GiB
Duration : 1h 26mn
Overall bit rate : 9 020 Kbps
Movie name : -Talian-
Encoded date : UTC 2011-09-21 12:24:06
Writing application : mkvmerge v3.3.0 ('Language') сборка от May 14 2010 17:11:50
Writing library : libebml v0.8.0 + libmatroska v0.9.0

Video
ID : 1
Format : AVC
Format/Info : Advanced Video Codec
Format profile : High@L4.1
Format settings, CABAC : Yes
Format settings, ReFrames : 9 frames
Format settings, GOP : M=1, N=19
Codec ID : V_MPEG4/ISO/AVC
Duration : 1h 26mn
Bit rate : 6 000 Kbps
Width : 1 280 pixels
Height : 544 pixels
Display aspect ratio : 2.35:1
Frame rate : 23.976 fps
Color space : YUV
Chroma subsampling : 4:2:0
Bit depth : 8 bits
Scan type : Progressive
Bits/(Pixel*Frame) : 0.359
Stream size : 3.50 GiB (65%)
Title : Beastly 2011 720p BluRay DD5.1 x264-EbP
Writing library : x264 core 115 r1995 c1e60b9
Encoding settings : cabac=1 / ref=9 / deblock=1:-3:-3 / analyse=0x3:0x113 / me=tesa / subme=10 / psy=1 / psy_rd=0.95:0.00 / mixed_ref=1 / me_range=16 / chroma_me=1 / trellis=2 / 8x8dct=1 / cqm=0 / deadzone=21,11 / fast_pskip=0 / chroma_qp_offset=-2 / threads=6 / sliced_threads=0 / nr=0 / decimate=0 / interlaced=0 / bluray_compat=0 / constrained_intra=0 / bframes=8 / b_pyramid=2 / b_adapt=2 / b_bias=0 / direct=3 / weightb=1 / open_gop=0 / weightp=2 / keyint=250 / keyint_min=23 / scenecut=40 / intra_refresh=0 / rc=2pass / mbtree=0 / bitrate=6000 / ratetol=1.0 / qcomp=0.60 / qpmin=0 / qpmax=69 / qpstep=4 / cplxblur=20.0 / qblur=0.5 / ip_ratio=1.40 / pb_ratio=1.30 / aq=1:0.75
Language : English

Audio #1
ID : 2
Format : DTS
Format/Info : Digital Theater Systems
Codec ID : A_DTS
Duration : 1h 26mn
Bit rate mode : Constant
Bit rate : 1 510 Kbps
Channel(s) : 6 channels
Channel positions : Front: L C R, Side: L R, LFE
Sampling rate : 48.0 KHz
Bit depth : 16 bits
Stream size : 930 MiB (17%)
Title : DUB-R5
Language : Russian

Audio #2
ID : 3
Format : DTS
Format/Info : Digital Theater Systems
Codec ID : A_DTS
Duration : 1h 26mn
Bit rate mode : Constant
Bit rate : 1 510 Kbps
Channel(s) : 6 channels
Channel positions : Front: L C R, Side: L R, LFE
Sampling rate : 48.0 KHz
Bit depth : 24 bits
Stream size : 930 MiB (17%)
Title : Original
Language : English

Text
ID : 4
Format : UTF-8
Codec ID : S_TEXT/UTF8
Codec ID/Info : UTF-8 Plain Text
Title : Sub
Language : English

Menu
00:00:00.000 : en:00:00:00.000
00:06:44.696 : en:00:06:44.696
00:11:53.588 : en:00:11:53.588
00:14:35.875 : en:00:14:35.875
00:19:46.185 : en:00:19:46.185
00:26:22.581 : en:00:26:22.581
00:31:30.305 : en:00:31:30.305
00:34:50.630 : en:00:34:50.630
00:39:48.261 : en:00:39:48.261
00:44:08.563 : en:00:44:08.563
00:50:34.490 : en:00:50:34.490
00:56:10.242 : en:00:56:10.242
01:00:13.902 : en:01:00:13.902
01:05:54.284 : en:01:05:54.284
01:11:07.388 : en:01:11:07.388
01:18:02.678 : en:01:18:02.678
Свернуть
"Скриншоты"

Изображение
Изображение
Изображение
Изображение
Изображение
Свернуть
Раздача группы:
Изображение


Последний раз редактировалось rastor 2011-09-21 20:09, всего редактировалось 2 раз(а).
В сети
Профиль  
 Добавлено: 2011-09-21 13:57 (спустя 10 часов)
Стаж: 5 лет 3 месяца
Сообщений: 2
Как фильм? стоит смотреть?
Не в сети
Профиль  
Начать новую темуОтветить на тему  [ Сообщений: 2 ] 
Вы не можете начинать темы
Вы не можете отвечать на сообщения
Вы не можете редактировать свои сообщения
Вы не можете удалять свои сообщения