Правила форума

Здесь находятся раздачи, на которых не было полного источника (сида) более месяца.
Вы можете вернуть релиз в соответствующий раздел, для этого напишите нам в специальной теме и встаньте на раздачу.
Новые релизы, повторяющие релизы в архиве, повторами не считаются.
Начать новую темуОтветить на тему  [ 1 сообщение ] 
Сообщения
 Добавлено: 2011-05-11 13:11
Top-releaser
Аватара пользователя
Стаж: 6 лет 7 месяцев
Сообщений: 2078
Спасибок: 3230
Лайков: 9
Судный день / Doomsday

Изображение

Год выпуска: 2008
Страна: Великобритания
Жанр: Фантастика, боевик, триллер, драма
Продолжительность: 01:52:50
Перевод: Профессиональный (полное дублирование)
Режиссёр: Нил Маршалл
В ролях: Рона Митра, Малколм МакДауэлл, Боб Хоскинс, Александр Сиддиг, Дэвид О'Хара, Шон Пертви, Нора-Джейн Нун, Эдриэн Лестер, Рик Уорден, Крэйг Конвэй, МиАнна Буринг, Мартин Компстон, Эмма Клисби, Крис Робсон, Лэнгли Керквуд, Джереми Кратчли, Лесли Симпсон
Описание: Великобритания, 2008 год. Смертельный и совершенно неизученный вирус, названный «Жнец» обрушился на страну, убивая десятки и сотни тысяч жителей. Не имея возможности решить проблему, правительство решает изолировать очаг заразы от не инфицированной местности, построив вокруг территории буйства «Жнеца» стену.
Проходит 30 лет, но вирус снова заявил о себе. Тогда было решено послать в заражённую область первоклассную команду спецназа для поисков возможных методов борьбы с вирусом. Ради выполнения цели и сохранения жизней ребятам придется пробиваться через настоящий оживший кошмар…

Доп.информация: Unrated версия не выходила в дубляже, есть места без перевода.

Качество: BDRip, 1080p
Формат: MKV
Видео кодек: H264 (AVC)
Аудио кодек: DTS
Видео: 1920x816, 23.976 fps, x.264 ~ 8568 Kbps
Аудио #1: Русский DTS 5.1 - 768 kb/s
Аудио #2: Английский DTS 5.1 - 768 kb/s

MediaInfo
Общее
Уникальный идентификатор : 182450087805997133641061493510842284823 (0x89429BD6C9E664E4B6B48831CD42FB17)
Полное имя : L:\Судный день\Doomsday_1080p - HQF.mkv
Формат : Matroska
Размер файла : 7,95 Гбайт
Продолжительность : 1 ч. 52 м.
Общий поток : 10,1 Мбит/сек
Название фильма : -=SkyDreamer=-HQ-Films.ws
Дата кодирования : UTC 2008-07-18 21:19:48
Программа кодирования : mkvmerge v2.1.0 ('Another Place To Fall') built on Aug 19 2007 13:40:07
Библиотека кодирования : libebml v0.7.7 + libmatroska v0.8.1

Видео
Идентификатор : 1
Формат : AVC
Формат/Информация : Advanced Video Codec
Профиль формата : High@L5.1
Параметр CABAC формата : Да
Параметр ReFrames формата : 5 кадры
Идентификатор кодека : V_MPEG4/ISO/AVC
Продолжительность : 1 ч. 52 м.
Битрейт : 8568 Кбит/сек
Ширина : 1920 пикс.
Высота : 816 пикс.
Соотношение сторон : 2,35:1
Частота кадров : 23,976 кадр/сек
Цветовое пространство : YUV
Подвыборка цветности : 4:2:0
Битовая глубина : 8 бит
Тип развёртки : Прогрессивная
Бит/(Пиксели*Кадры) : 0.228
Размер потока : 6,60 Гбайт (83%)
Заголовок : Doomsday_1080p - HQF
Библиотека кодирования : x264 core 60 r913 64848ff
Настройки программы : cabac=1 / ref=5 / deblock=1:0:0 / analyse=0x3:0x133 / me=umh / subme=6 / brdo=1 / mixed_ref=1 / me_range=16 / chroma_me=1 / trellis=1 / 8x8dct=1 / cqm=0 / deadzone=21,11 / chroma_qp_offset=0 / threads=6 / nr=0 / decimate=1 / mbaff=0 / bframes=3 / b_pyramid=1 / b_adapt=1 / b_bias=0 / direct=1 / wpredb=1 / bime=1 / keyint=250 / keyint_min=25 / scenecut=40(pre) / rc=2pass / bitrate=8568 / ratetol=1.0 / rceq='blurCplx^(1-qComp)' / qcomp=1.00 / qpmin=10 / qpmax=51 / qpstep=4 / cplxblur=20.0 / qblur=0.5 / ip_ratio=1.40 / pb_ratio=1.30 / aq=2:1.00
Язык : English

Аудио #1
Идентификатор : 2
Формат : DTS
Формат/Информация : Digital Theater Systems
Идентификатор кодека : A_DTS
Продолжительность : 1 ч. 52 м.
Вид битрейта : Постоянный
Битрейт : 755 Кбит/сек
Канал(ы) : 6 канала(ов)
Расположение каналов : Front: L C R, Side: L R, LFE
Частота : 48,0 КГц
Битовая глубина : 24 бит
Метод сжатия : С потерями
Размер потока : 609 Мбайт (7%)
Заголовок : DTS_5.1_768kbps
Язык : Russian

Аудио #2
Идентификатор : 3
Формат : DTS
Формат/Информация : Digital Theater Systems
Идентификатор кодека : A_DTS
Продолжительность : 1 ч. 52 м.
Вид битрейта : Постоянный
Битрейт : 755 Кбит/сек
Канал(ы) : 6 канала(ов)
Расположение каналов : Front: L C R, Side: L R, LFE
Частота : 48,0 КГц
Битовая глубина : 24 бит
Метод сжатия : С потерями
Размер потока : 609 Мбайт (7%)
Заголовок : DTS_5.1_768kbps
Язык : English
Свернуть
Скриншоты
Изображение

Изображение

Изображение
Свернуть
Не в сети
Профиль  
Начать новую темуОтветить на тему  [ 1 сообщение ] 
Вы не можете начинать темы
Вы не можете отвечать на сообщения
Вы не можете редактировать свои сообщения
Вы не можете удалять свои сообщения