Правила форума

Здесь находятся раздачи, на которых не было полного источника (сида) более месяца.
Вы можете вернуть релиз в соответствующий раздел, для этого напишите нам в специальной теме и встаньте на раздачу.
Новые релизы, повторяющие релизы в архиве, повторами не считаются.
Начать новую темуОтветить на тему  [ Сообщений: 5 ] 
Сообщения
 Добавлено: 2012-12-30 09:20
Модератор
Аватара пользователя
Стаж: 6 лет 10 месяцев
Возраст: 33
Сообщений: 5908
Спасибок: 61259
Лайков: 3540
Изображение

Судья Дредд 3D
Dredd 3D


Год выпуска: 2012
Страна: ЮАР, Великобритания
Слоган: «Я – закон»
Жанр: фантастика, боевик, триллер, криминал
Продолжительность: 01:35:51
Перевод: Любительский одноголосый [Lisitz]
[b]Режиссер: Пит Трэвис

Сценарий: Алекс Гарленд, Джон Вагнер, Карлос Эскуэрра
Продюсер: Алекс Гарленд, Эндрю МакДональд, Аллон Рич, Майкл Элсон, Ади Шанкар
Оператор: Энтони Дод Мэнтл
Композитор: Пол Леонард-Морган
В ролях: Карл Урбан, Оливия Тирлби, Лина Хиди, Вуд Харрис, Рэйчел Вуд, Андил Мнгади, Портес Ксандо Стинкамп, Джейсон Коуп, Эмма Бреши, Рэки Айола
Бюджет: $50 000 000
Сборы в США: $13 414 714
Сборы в России: $4 038 623
Сборы в мире: $30 931 946
Мировая премьера: 11 июля 2012
Релиз на DVD: 21 января 2013, «Новый Диск»
Релиз на Blu-ray: 21 января 2013, «Новый Диск»
Описание: Будущее не столь красочно и великолепно, каким его представляют современные люди. Через несколько столетий человечество окажется на грани самоуничтожения, захлёбываясь в кровавых преступлениях, смертельных грехах и беспорядочных убийствах. Старую систему правосудия будет невозможно использовать - анархия, всеобщие беспорядки вынуждают ещё сохранившуюся власть, тем не менее, потерявшую всякий авторитет и легитимность, пойти на отчаянные крайние меры и ввести институт Судей - универсальных полицейских, правоприменителей, а по совместительству - и прокуроров, которые упростили бы весь процесс задержания, следствия и судебных тяжб, совмещая в одном лице все должности блюстителей и защитников правопорядка.
Негодяи, подонки, вконец обнаглевшие и распоясавшиеся преступники и бандитские группировки всё равно не желают сдавать свои упрочившие позиции, опасаясь лишь одного - встречи с легендарным Судьёй Дреддом, пересажавшим или расстрелявшим не одну сотню насильников, террористов и жадных до человеческих страданий маньяков. В то время, как беспорядки и бесчинства бушуют на улицах города, Дредд спешит вернуть порядок, Закон и тишину, которым, кажется, уже никогда не обрести свою былую полноту, мощь и силу.


Изображение User Rating: 7.372 (8159)
Изображение User Rating: 7.50 (24 345)
MPAA: R - Лицам до 17 лет обязательно присутствие взрослого
Раздача группы: Изображение
Качество: BDRip 1080p
Формат 3D: Горизонтальная анаморфная стереопара
Формат: MKV
Видео: MPEG-4 AVC, 13813 Кбит/с, 1920x1080
Аудио: Русский (АС3, 6 ch, 448 Кбит/с), английский (DTS, 6 ch, 1510 Кбит/с)
mediainfo
General
Unique ID : 198198010508697220094855059391749372673 (0x951B8C5FB9EF952F88175B198C4D3B01)
Complete name : C:\Users\Oleg\Downloads\dredd.2012.1080p.bluray.3D.h-sbs.dts.x264-publichd.mkv
Format : Matroska
Format version : Version 2
File size : 10.8 GiB
Duration : 1h 35mn
Overall bit rate : 16.1 Mbps
Encoded date : UTC 2012-12-30 03:51:58
Writing application : mkvmerge v5.8.0 ('No Sleep / Pillow') built on Sep 2 2012 15:37:04
Writing library : libebml v1.2.3 + libmatroska v1.3.0

Video
ID : 1
Format : AVC
Format/Info : Advanced Video Codec
Format profile : High@L4.1
Format settings, CABAC : Yes
Format settings, ReFrames : 2 frames
Codec ID : V_MPEG4/ISO/AVC
Duration : 1h 35mn
Bit rate : 13.8 Mbps
Width : 1 920 pixels
Height : 1 080 pixels
Display aspect ratio : 16:9
Frame rate mode : Constant
Frame rate : 23.976 fps
Color space : YUV
Chroma subsampling : 4:2:0
Bit depth : 8 bits
Scan type : Progressive
Bits/(Pixel*Frame) : 0.278
Stream size : 9.25 GiB (86%)
Writing library : x264 core
Language : English
Default : Yes
Forced : No
Color primaries : BT.709
Transfer characteristics : BT.709
Matrix coefficients : BT.709

Audio #1
ID : 2
Format : AC-3
Format/Info : Audio Coding 3
Mode extension : CM (complete main)
Format settings, Endianness : Big
Codec ID : A_AC3
Duration : 1h 35mn
Bit rate mode : Constant
Bit rate : 448 Kbps
Channel(s) : 6 channels
Channel positions : Front: L C R, Side: L R, LFE
Sampling rate : 48.0 KHz
Bit depth : 16 bits
Compression mode : Lossy
Stream size : 307 MiB (3%)
Language : Russian
Default : Yes
Forced : No

Audio #2
ID : 3
Format : DTS
Format/Info : Digital Theater Systems
Mode : 16
Format settings, Endianness : Big
Codec ID : A_DTS
Duration : 1h 35mn
Bit rate mode : Constant
Bit rate : 1 509 Kbps
Channel(s) : 6 channels
Channel positions : Front: L C R, Side: L R, LFE
Sampling rate : 48.0 KHz
Bit depth : 24 bits
Compression mode : Lossy
Stream size : 1.01 GiB (9%)
Language : English
Default : No
Forced : No

Menu
00:00:00.000 : en:00:00:00.000
00:05:43.552 : en:00:05:43.552
00:08:14.661 : en:00:08:14.661
00:14:17.356 : en:00:14:17.356
00:19:42.681 : en:00:19:42.681
00:24:09.323 : en:00:24:09.323
00:27:21.056 : en:00:27:21.056
00:36:01.284 : en:00:36:01.284
00:39:49.012 : en:00:39:49.012
00:48:26.946 : en:00:48:26.946
00:54:39.651 : en:00:54:39.651
01:00:57.237 : en:01:00:57.237
01:06:30.570 : en:01:06:30.570
01:12:01.651 : en:01:12:01.651
01:20:10.264 : en:01:20:10.264
01:27:00.382 : en:01:27:00.382
Свернуть
"Знаете ли Вы, что..."
  • Судья Дредд создан писателем Джоном Вагнером и художником Карлосом Эскуэрра.
Свернуть
Скриншоты

Изображение
Изображение
Изображение
Свернуть
_________________
ИзображениеИзображение Изображение
Изображение
 tany1984 и di-ys1 нравится это.
Не в сети
Профиль  
 Добавлено: 2012-12-30 14:12 (спустя 4 часа)
Аватара пользователя
Стаж: 9 лет
Сообщений: 167
Спасибок: 38
в нормальном не в 3 д полной версии выложи
Не в сети
Профиль  
 Добавлено: 2012-12-30 20:12 (спустя 5 часов)
Модератор
Аватара пользователя
Стаж: 6 лет 10 месяцев
Возраст: 33
Сообщений: 5908
Спасибок: 61259
Лайков: 3540

dilmah:

в нормальном не в 3 д полной версии выложи
1080, 720 есть на трекере
_________________
ИзображениеИзображение Изображение
Изображение
Не в сети
Профиль  
 Добавлено: 2013-01-04 05:10 (спустя 4 дня)
Инквизитор
Аватара пользователя
Стаж: 8 лет 9 месяцев
Возраст: 25
Сообщений: 2537
Спасибок: 3227
Лайков: 33
Запрещено размещать в названии файла(-ов), папки или торрент-файла названия сторонних сайтов, в том числе при полном совпадении с названим релиз-группы.
dredd.2012.1080p.bluray.3D.h-sbs.dts.x264-[b]publichd.mkv[/b]

Исправить.
_________________
Изображение Изображение
Не в сети
Профиль  
 Добавлено: 2013-01-26 12:57 (спустя 22 дня)
Руководитель релиз-группы
Аватара пользователя
Стаж: 7 лет 5 месяцев
Возраст: 31
Сообщений: 3406
Спасибок: 46729
Лайков: 5
viewtopic.php?f=1750&t=497279
Не в сети
Профиль  
Начать новую темуОтветить на тему  [ Сообщений: 5 ] 
Вы не можете начинать темы
Вы не можете отвечать на сообщения
Вы не можете редактировать свои сообщения
Вы не можете удалять свои сообщения