Правила форума

Здесь находятся раздачи, на которых не было полного источника (сида) более месяца.
Вы можете вернуть релиз в соответствующий раздел, для этого напишите нам в специальной теме и встаньте на раздачу.
Новые релизы, повторяющие релизы в архиве, повторами не считаются.
Начать новую темуОтветить на тему  [ Сообщений: 11 ] 
Сообщения
 Добавлено: 2013-02-19 06:19
DVD Release Group
Аватара пользователя
Стаж: 7 лет 1 месяц
Сообщений: 3544
Спасибок: 246938
Лайков: 1018
Сумерки. Сага. Рассвет: Часть 2

The Twilight Saga: Breaking Dawn - Part 2

«Грандиозный финал бессмертной саги»


Изображение


Год выпуска: 2012
Страна: США / Lionsgate, Summit Entertainment
Жанр: Фэнтези, драма, мелодрама, приключения
Продолжительность: 01:55:12
Перевод: Профессиональный (полное дублирование)
Субтитры: Нет
Режиссер: Билл Кондон
В ролях: Кристен Стюарт, Роберт Паттинсон, Тэйлор Лотнер, Питер Фачинелли, Элизабет Ризер, Эшли Грин, Джексон Рэтбоун, Келлан Латс, Никки Рид, Билли Бёрк
Описание: Белла, став вампиром, постепенно свыкается со своей новой природой. В этом ей помогают Эдвард и остальные члены семьи Калленов. К тому же теперь у Беллы есть дочь Ренесми и вечность впереди. Джейкоб, запечатленный с Ренесми, становится для девочки другом и наставником. Ненадолго для героев наступают спокойные, счастливые дни. Все заканчивается, когда вести о Ренесми доходят до Вольтури. «Обращение» детей строго запрещено в мире вампиров. Не зная о необычном происхождении Ренесми, Вольтури собирают армию и направляются в Форкс, чтобы уничтожить Калленов.
Изображение
Sample:
http://multi-up.com/832992
Качество: BDRip 1080p
Формат: MKV
Видео кодек: H.264
Аудио кодек: AC3, DTS
Видео: 1920x800 23.98fps 8364Kbps 0.227bit/pixel
Аудио:
Audio Rus: AC3 48kHz 6ch 384kbps
Audio Eng: DTS 48kHz 6ch 1510kbps
"MediaInfo"
Формат : Matroska
Версия формата : Version 2
Размер файла : 8,26 Гбайт
Продолжительность : 1 ч. 55 м.
Общий поток : 10,3 Мбит/сек
Дата кодирования : UTC 2013-02-19 00:34:51
Программа кодирования : mkvmerge v5.5.0 ('Healer') built on Apr 6 2012 21:43:24
Библиотека кодирования : libebml v1.2.3 + libmatroska v1.3.0

Видео
Идентификатор : 1
Формат : AVC
Формат/Информация : Advanced Video Codec
Профиль формата : High@L4.1
Параметр CABAC формата : Да
Параметр ReFrames формата : 5 кадров
Идентификатор кодека : V_MPEG4/ISO/AVC
Продолжительность : 1 ч. 55 м.
Битрейт : 8364 Кбит/сек
Ширина : 1920 пикселей
Высота : 800 пикселей
Соотношение сторон : 2,40:1
Частота кадров : 23,976 кадра/сек
Цветовое пространство : YUV
Субдискретизация насыщенности : 4:2:0
Битовая глубина : 8 бит
Тип развёртки : Прогрессивная
Бит/(Пиксели*Кадры) : 0.227
Размер потока : 6,57 Гбайт (80%)
Библиотека кодирования : x264 core 129 r2245 bc13772
Настройки программы : cabac=1 / ref=5 / deblock=1:0:0 / analyse=0x3:0x133 / me=umh / subme=7 / psy=1 / psy_rd=1.00:0.00 / mixed_ref=1 / me_range=16 / chroma_me=1 / trellis=1 / 8x8dct=1 / cqm=0 / deadzone=21,11 / fast_pskip=0 / chroma_qp_offset=-2 / threads=18 / lookahead_threads=3 / sliced_threads=0 / nr=0 / decimate=1 / interlaced=0 / bluray_compat=0 / constrained_intra=0 / bframes=3 / b_pyramid=2 / b_adapt=1 / b_bias=0 / direct=1 / weightb=1 / open_gop=0 / weightp=2 / keyint=250 / keyint_min=23 / scenecut=40 / intra_refresh=0 / rc_lookahead=40 / rc=2pass / mbtree=1 / bitrate=8364 / ratetol=1.0 / qcomp=0.60 / qpmin=0 / qpmax=69 / qpstep=4 / cplxblur=20.0 / qblur=0.5 / ip_ratio=1.40 / aq=1:1.00
Язык : English
Default : Да
Forced : Нет

Аудио #1
Идентификатор : 2
Формат : AC-3
Формат/Информация : Audio Coding 3
Расширение режима : CM (complete main)
Идентификатор кодека : A_AC3
Продолжительность : 1 ч. 55 м.
Вид битрейта : Постоянный
Битрейт : 384 Кбит/сек
Каналы : 6 каналов
Расположение каналов : Front: L C R, Side: L R, LFE
Частота : 48,0 КГц
Битовая глубина : 16 бит
Метод сжатия : С потерями
Задержка видео : 300 мс.
Размер потока : 316 Мбайт (4%)
Язык : Russian
Default : Да
Forced : Нет

Аудио #2
Идентификатор : 3
Формат : DTS
Формат/Информация : Digital Theater Systems
Идентификатор кодека : A_DTS
Продолжительность : 1 ч. 55 м.
Вид битрейта : Постоянный
Битрейт : 1510 Кбит/сек
Каналы : 6 каналов
Расположение каналов : Front: L C R, Side: L R, LFE
Частота : 48,0 КГц
Битовая глубина : 24 бит
Метод сжатия : С потерями
Размер потока : 1,21 Гбайт (15%)
Заголовок : DTS
Язык : English
Default : Нет
Forced : Нет

Текст #1
Идентификатор : 4
Формат : UTF-8
Идентификатор кодека : S_TEXT/UTF8
Идентификатор кодека/Информация : UTF-8 Plain Text
Заголовок : English (Forced)
Язык : English
Default : Да
Forced : Нет

Текст #2
Идентификатор : 5
Формат : UTF-8
Идентификатор кодека : S_TEXT/UTF8
Идентификатор кодека/Информация : UTF-8 Plain Text
Заголовок : English
Язык : English
Default : Нет
Forced : Нет

Меню
00:00:00.000 : en:00:00:00.000
00:08:04.067 : en:00:08:04.067
00:13:35.398 : en:00:13:35.398
00:18:36.073 : en:00:18:36.073
00:22:11.080 : en:00:22:11.080
00:30:03.343 : en:00:30:03.343
00:38:06.159 : en:00:38:06.159
00:44:23.619 : en:00:44:23.619
00:48:35.830 : en:00:48:35.830
00:52:31.440 : en:00:52:31.440
00:58:11.947 : en:00:58:11.947
01:02:10.352 : en:01:02:10.352
01:08:26.060 : en:01:08:26.060
01:11:38.503 : en:01:11:38.503
01:20:35.456 : en:01:20:35.456
01:24:57.509 : en:01:24:57.509
01:32:17.157 : en:01:32:17.157
01:38:08.966 : en:01:38:08.966
Свернуть

"Скриншоты"
Изображение
Изображение
Изображение
Свернуть

Раздача группы:
Изображение
Не в сети
Профиль  
 Добавлено: 2013-02-19 07:10 (спустя 51 минута)
Модератор релиз-группы
Аватара пользователя
Стаж: 6 лет 5 месяцев
Возраст: 25
Сообщений: 622
Спасибок: 10257
Лайков: 7
Позолотите релизик :hi_hi_hi:
_________________
Изображение
Не в сети
Профиль  
 Добавлено: 2013-02-19 07:32 (спустя 21 минута)
Bumblebee
Аватара пользователя
Стаж: 7 лет 9 месяцев
Сообщений: 8249
Спасибок: 346368
Лайков: 2732
Slovetskii
:-D
ага щас
в утиль после выхода R5
_________________
Изображение
Transformers Battle Ops Bumblebee Transformation & Alt Mode Costco Exclusive Limited Edition Metallic Finish
http://www.youtube.com/watch?v=atQ5oDjfj7M#t=68
Свернуть
Не в сети
Профиль  
 Добавлено: 2013-02-19 08:44 (спустя 1 час 12 минут)
Аватара пользователя
Стаж: 8 лет
Сообщений: 1390
Спасибок: 39
Лайков: 63
rastor
сам еще не слил штоль...5 пиров по 40% сидов 0
Не в сети
Профиль  
 Добавлено: 2013-02-19 08:49 (спустя 5 минут)
Модератор релиз-группы
Аватара пользователя
Стаж: 6 лет 5 месяцев
Возраст: 25
Сообщений: 622
Спасибок: 10257
Лайков: 7
ferguson
Все роуно ман! Не заметил, у него 100% и он 1 в сидах. Просто скорость походу такая :)
Scylla
В ЛС написал)
_________________
Изображение
Не в сети
Профиль  
 Добавлено: 2013-02-19 09:40 (спустя 50 минут)
DVD Release Group
Аватара пользователя
Стаж: 7 лет 1 месяц
Сообщений: 3544
Спасибок: 246938
Лайков: 1018
ferguson
Скорость отдачи 1мб/сек. Больше не идет. Внутри сети 11мб/сек.
Не в сети
Профиль  
 Добавлено: 2013-02-19 09:50 (спустя 10 минут)
Хавбек
Аватара пользователя
Стаж: 7 лет 6 месяцев
Возраст: 25
Сообщений: 216
А что не так с этим релизом? Почему временный?
Не в сети
Профиль  
 Добавлено: 2013-02-19 09:51 (спустя 1 минута)
DVD Release Group
Аватара пользователя
Стаж: 7 лет 1 месяц
Сообщений: 3544
Спасибок: 246938
Лайков: 1018
lu_men
Звук чистый, не лицензия.
Не в сети
Профиль  
 Добавлено: 2013-02-19 10:16 (спустя 24 минуты)
Хавбек
Аватара пользователя
Стаж: 7 лет 6 месяцев
Возраст: 25
Сообщений: 216

rastor:

lu_men
Звук чистый, не лицензия.
:-ok-:
Не в сети
Профиль  
 Добавлено: 2013-03-07 09:36 (спустя 15 дней)
Аватара пользователя
Стаж: 5 лет 11 месяцев
Сообщений: 53
Когда лицензия то выйдет? В кинопоиске 5 марта релиз на ДВД написано
Не в сети
Профиль  
 Добавлено: 2013-03-13 20:58 (спустя 6 дней)
Модератор
Аватара пользователя
Стаж: 8 лет 11 месяцев
Сообщений: 516
Спасибок: 26888
Лайков: 1
viewtopic.php?f=1750&t=502519
Не в сети
Профиль  
Начать новую темуОтветить на тему  [ Сообщений: 11 ] 
Вы не можете начинать темы
Вы не можете отвечать на сообщения
Вы не можете редактировать свои сообщения
Вы не можете удалять свои сообщения