Правила форума

Здесь находятся раздачи, на которых не было полного источника (сида) более месяца.
Вы можете вернуть релиз в соответствующий раздел, для этого напишите нам в специальной теме и встаньте на раздачу.
Новые релизы, повторяющие релизы в архиве, повторами не считаются.
Начать новую темуОтветить на тему  [ 1 сообщение ] 
Сообщения
 Добавлено: 2011-08-02 20:38
Модератор релиз-группы
Аватара пользователя
Стаж: 9 лет 1 месяц
Возраст: 97
Сообщений: 11659
Спасибок: 6530
Лайков: 269
Супер полицейские / Super Troopers

Изображение


Год выпуска: 2001
Страна: сша
Жанр: комедия, криминал, детектив
Продолжительность: 01:40:20
Перевод: Профессиональный (двухголосый закадровый)
Авторский одноголосый (Карповский)
Одноголосый закадровый, Amphetamino
Оригинальная звуковая дорожка
Субтитры: Английские

Режиссёр: Джей Чандрашекхар / Джей Чандрашекхар
В ролях: Джои Керн, Джеффри Аренд, Эрик Столханске, Джей Чандрашекхар, Стив Лемм, Кевин Хеффернан, Пол Сотер, Камилль Хикман, Мариса Кохлан
Описание: Тони, Мак, Рэббит, Фостер и Фава - полицейские штата Вермонт, живут просто припеваючи. Патрулируя небольшую территорию, близь канадской границы, полицейские обленились настолько, что уже просто откровенно «забивают» на работу. Но когда в городе урезают бюджет, что начинает сильно угрожать их карману, 5 друзей объединяются в борьбе за выживание. Чтобы вернуть все на круги свои необходимо раскрыть убийство и найти все возможные наркотики. Супер полицейские предпринимают попытку раскрыть преступления, тем самым спасти свою работу и доказать местному отделению полиции, что они - лучшие.

Изображение
Качество: BDRip
Формат: mkv
Видео кодек: MPEG-4 AVC
Аудио кодек: AC3 (Dolby Digital)
Видео: AVC; 1920x1040 @ 23.976fps; ~9824Kbps
Аудио #1: AC3; 2Ch; 48KHz; 16Bit; CBR; ~224Kbps [Профессиональный (двухголосый закадровый)]
Аудио #2: AC3; 2Ch; 48KHz; 16Bit; CBR; ~192Kbps [Авторский одноголосый (Карповский)]
Аудио #3: DTS; 6Ch; 48KHz; 24Bit; CBR; ~1536Kbps [Одноголосый закадровый, Amphetamino]
Аудио #4: DTS; 6Ch; 48KHz; 24Bit; CBR; ~1536Kbps [Оригинальная звуковая дорожка]
Субтитры: Английские
Скриншоты
Изображение

Изображение

Изображение

Изображение

Изображение
Свернуть

Mi
Format : Matroska
Format version : Version 2
File size : 9.29 GiB
Duration : 1h 40mn
Overall bit rate : 13.3 Mbps
Movie name : Супер полицейские / Super Troopers (2001) [Джей Чандрашекхар / Джей Чандрашекхар] BDRip
Encoded date : UTC 2011-05-18 21:24:50
Writing application : mkvmerge v4.7.0 ('Just Like You Imagined') built on Apr 21 2011 01:13:14
Writing library : libebml v1.2.0 + libmatroska v1.1.0
Attachment : Yes

Video
ID : 1
Format : AVC
Format/Info : Advanced Video Codec
Format profile : High@L4.1
Format settings, CABAC : Yes
Format settings, ReFrames : 5 frames
Codec ID : V_MPEG4/ISO/AVC
Duration : 1h 40mn
Bit rate : 9 824 Kbps
Width : 1 920 pixels
Height : 1 040 pixels
Display aspect ratio : 16:9
Frame rate : 23.976 fps
Color space : YUV
Chroma subsampling : 4:2:0
Bit depth : 8 bits
Scan type : Progressive
Bits/(Pixel*Frame) : 0.205
Stream size : 6.70 GiB (72%)
Title : AVC; 1920x1040 @ 23.976fps; ~9824Kbps
Writing library : x264 core 65 r1065 0e1a92c
Encoding settings : cabac=1 / ref=5 / deblock=1:0:0 / analyse=0x3:0x133 / me=umh / subme=7 / psy_rd=1.0:0.0 / mixed_ref=1 / me_range=16 / chroma_me=1 / trellis=1 / 8x8dct=1 / cqm=0 / deadzone=21,11 / chroma_qp_offset=-2 / threads=6 / nr=0 / decimate=1 / mbaff=0 / bframes=3 / b_pyramid=1 / b_adapt=1 / b_bias=0 / direct=1 / wpredb=1 / keyint=250 / keyint_min=25 / scenecut=40(pre) / rc=2pass / bitrate=9824 / ratetol=1.0 / qcomp=0.60 / qpmin=10 / qpmax=51 / qpstep=4 / cplxblur=20.0 / qblur=0.5 / ip_ratio=1.40 / pb_ratio=1.30 / aq=1:1.00
Language : English

Audio #1
ID : 2
Format : AC-3
Format/Info : Audio Coding 3
Mode extension : CM (complete main)
Codec ID : A_AC3
Duration : 1h 40mn
Bit rate mode : Constant
Bit rate : 224 Kbps
Channel(s) : 2 channels
Channel positions : Front: L R
Sampling rate : 48.0 KHz
Bit depth : 16 bits
Compression mode : Lossy
Stream size : 161 MiB (2%)
Title : AC3; 2Ch; 48KHz; 16Bit; CBR; ~224Kbps (MVO R5)
Language : Russian

Audio #2
ID : 3
Format : AC-3
Format/Info : Audio Coding 3
Mode extension : CM (complete main)
Codec ID : A_AC3
Duration : 1h 40mn
Bit rate mode : Constant
Bit rate : 192 Kbps
Channel(s) : 2 channels
Channel positions : Front: L R
Sampling rate : 48.0 KHz
Bit depth : 16 bits
Compression mode : Lossy
Stream size : 138 MiB (1%)
Title : AC3; 2Ch; 48KHz; 16Bit; CBR; ~192Kbps (AVO Karpovskiy)
Language : Russian

Audio #3
ID : 4
Format : DTS
Format/Info : Digital Theater Systems
Codec ID : A_DTS
Duration : 1h 40mn
Bit rate mode : Constant
Bit rate : 1 510 Kbps
Channel(s) : 6 channels
Channel positions : Front: L C R, Side: L R, LFE
Sampling rate : 48.0 KHz
Bit depth : 24 bits
Compression mode : Lossy
Stream size : 1.06 GiB (11%)
Title : DTS; 6Ch; 48KHz; 24Bit; CBR; ~1536Kbps (AVO Amphetamino)
Language : Russian

Audio #4
ID : 5
Format : DTS
Format/Info : Digital Theater Systems
Codec ID : A_DTS
Duration : 1h 40mn
Bit rate mode : Constant
Bit rate : 1 510 Kbps
Channel(s) : 6 channels
Channel positions : Front: L C R, Side: L R, LFE
Sampling rate : 48.0 KHz
Bit depth : 24 bits
Compression mode : Lossy
Stream size : 1.06 GiB (11%)
Title : DTS; 6Ch; 48KHz; 24Bit; CBR; ~1536Kbps (Original)
Language : English

Text
ID : 6
Format : UTF-8
Codec ID : S_TEXT/UTF8
Codec ID/Info : UTF-8 Plain Text
Title : SRT
Language : English

Свернуть
Не в сети
Профиль  
Начать новую темуОтветить на тему  [ 1 сообщение ] 
Вы не можете начинать темы
Вы не можете отвечать на сообщения
Вы не можете редактировать свои сообщения
Вы не можете удалять свои сообщения