Правила форума

Здесь находятся раздачи, на которых не было полного источника (сида) более месяца.
Вы можете вернуть релиз в соответствующий раздел, для этого напишите нам в специальной теме и встаньте на раздачу.
Новые релизы, повторяющие релизы в архиве, повторами не считаются.
Начать новую темуОтветить на тему  [ Сообщений: 2 ] 
Сообщения
 Добавлено: 2011-03-05 15:44
Модератор релиз-группы
Аватара пользователя
Стаж: 9 лет 1 месяц
Возраст: 97
Сообщений: 11660
Спасибок: 6533
Лайков: 269
СуперМакГрубер / MacGruber

Изображение


Год выпуска: 2010
Страна: США
Слоган: «Их оружие - убийственный интеллект. Их горючее - адреналин.»
Жанр: боевик, комедия
Продолжительность: 01:34:53
Версия фильма: Unrated / Полная версия
Перевод: Профессиональный (дубляж)
Дублеры: Пётр Иващенко,Александр Гаврилин,Александр Носков,Михаил Георгиу,Александр Рахленко + Оригинальная звуковая дорожка
Субтитры: русские (на места без перевода), русские (полные), английские

Режиссёр: Йорма Такконе / Jorma Taccone
В ролях: Уилл Форте, Кристен Уиг, Райан Филипп, Вэл Килмер, Пауэрс Бут, Майя Рудольф, Риз Койро, Энди МакКензи, Джаспер Коул, Тимоти В. Мерфи, Кевин Скаусен, Джим Гислер
Описание: Планета под угрозой уничтожения, Вашингтон в опасности: безумный Дитер вот-вот взорвет Белый Дом с помощью украденной ядерной боеголовки. Армии и спецслужбы всех государств опускают руки. Кто же спасет мир? Конечно МакГрубер!Бывший суперагент, покинувший суетный мир ради уединения в одном из монастырей Эквадора, вновь выходит на тропу войны. Круглый тупица МакГрубер — единственная и последняя надежда Америки, да и всего человечества.
Изображение 4.842 голосов: 2 416

Изображение

Качество: BDRip, 1080p
Формат: MKV
Видео кодек: H264 (AVC)
Аудио кодек: DTS
Видео: x264;1920x800(2.400); 10500 Kbps; 23.976 fps
Аудио #1: Русский, 48 kHz, DTS 3/2 (L,C,R,l,r) + LFE ch,768 kbps [Профессиональный (дубляж)]
Аудио #2: Английский, 48 kHz, DTS, 3/2 (L,C,R,l,r) + LFE ch,1536 kbps [Оригинальная звуковая дорожка]
Субтитры: русские (на места без перевода), русские (полные), английские
ещё
Spanish, Romanian ,French, Czech
Скриншоты
Изображение

Изображение

Изображение

Изображение

Изображение
Свернуть

Mi
Format : Matroska
File size : 8.45 GiB
Duration : 1h 34mn
Overall bit rate : 12.8 Mbps
Movie name : -kieder-
Encoded date : UTC 2010-10-12 13:35:31
Writing application : mkvmerge v3.2.0 ('Beginnings') built on Feb 17 2010 12:36:13
Writing library : libebml v0.7.9 + libmatroska v0.8.1

Video
ID : 1
Format : AVC
Format/Info : Advanced Video Codec
Format profile : High@L4.1
Format settings, CABAC : Yes
Format settings, ReFrames : 4 frames
Codec ID : V_MPEG4/ISO/AVC
Duration : 1h 34mn
Bit rate : 10.5 Mbps
Width : 1 920 pixels
Height : 800 pixels
Display aspect ratio : 2.40:1
Frame rate : 23.976 fps
Color space : YUV
Chroma subsampling : 4:2:0
Bit depth : 8 bits
Scan type : Progressive
Bits/(Pixel*Frame) : 0.285
Stream size : 6.78 GiB (80%)
Writing library : x264 core 104 r1703 cd21d05
Encoding settings : cabac=1 / ref=5 / deblock=1:0:0 / analyse=0x3:0x133 / me=umh / subme=7 / psy=1 / psy_rd=1.00:0.20 / mixed_ref=1 / me_range=16 / chroma_me=1 / trellis=1 / 8x8dct=1 / cqm=0 / deadzone=21,11 / fast_pskip=1 / chroma_qp_offset=-6 / threads=12 / sliced_threads=0 / nr=0 / decimate=1 / interlaced=0 / constrained_intra=0 / bframes=3 / b_pyramid=1 / b_adapt=1 / b_bias=0 / direct=3 / weightb=1 / open_gop=0 / weightp=0 / keyint=250 / keyint_min=23 / scenecut=40 / intra_refresh=0 / rc_lookahead=40 / rc=2pass / mbtree=1 / bitrate=10484 / ratetol=1.0 / qcomp=0.60 / qpmin=10 / qpmax=51 / qpstep=4 / cplxblur=20.0 / qblur=0.5 / ip_ratio=1.40 / aq=1:1.00
Language : English

Audio #1
ID : 2
Format : DTS
Format/Info : Digital Theater Systems
Codec ID : A_DTS
Duration : 1h 34mn
Bit rate mode : Constant
Bit rate : 755 Kbps
Channel(s) : 6 channels
Channel positions : Front: L C R, Side: L R, LFE
Sampling rate : 48.0 KHz
Bit depth : 24 bits
Compression mode : Lossy
Stream size : 512 MiB (6%)
Title : DTS 5.1 768 kbps @ Dublyaz
Language : Russian

Audio #2
ID : 3
Format : DTS
Format/Info : Digital Theater Systems
Codec ID : A_DTS
Duration : 1h 34mn
Bit rate mode : Constant
Bit rate : 1 510 Kbps
Channel(s) : 6 channels
Channel positions : Front: L C R, Side: L R, LFE
Sampling rate : 48.0 KHz
Bit depth : 24 bits
Compression mode : Lossy
Stream size : 1.00 GiB (12%)
Title : DTS 5.1 1536 kbps
Language : English

Text #1
ID : 4
Format : UTF-8
Codec ID : S_TEXT/UTF8
Codec ID/Info : UTF-8 Plain Text
Title : Unrated parts only
Language : Russian

Text #2
ID : 5
Format : UTF-8
Codec ID : S_TEXT/UTF8
Codec ID/Info : UTF-8 Plain Text
Title : Full
Language : Russian

Text #3
ID : 6
Format : UTF-8
Codec ID : S_TEXT/UTF8
Codec ID/Info : UTF-8 Plain Text
Language : English

Text #4
ID : 7
Format : UTF-8
Codec ID : S_TEXT/UTF8
Codec ID/Info : UTF-8 Plain Text
Language : Czech

Text #5
ID : 8
Format : UTF-8
Codec ID : S_TEXT/UTF8
Codec ID/Info : UTF-8 Plain Text
Language : French

Text #6
ID : 9
Format : UTF-8
Codec ID : S_TEXT/UTF8
Codec ID/Info : UTF-8 Plain Text
Language : Romanian

Text #7
ID : 10
Format : UTF-8
Codec ID : S_TEXT/UTF8
Codec ID/Info : UTF-8 Plain Text
Language : Spanish

Свернуть
Не в сети
Профиль  
 Добавлено: 2011-03-16 10:34 (спустя 10 дней)
Аватара пользователя
Стаж: 8 лет 3 месяца
Возраст: 43
Сообщений: 3290
Спасибок: 21012
Лайков: 3
подниму тему, было долго не проверено, приносим свои извинения :(
_________________
Изображение
Не в сети
Профиль  
Начать новую темуОтветить на тему  [ Сообщений: 2 ] 
Вы не можете начинать темы
Вы не можете отвечать на сообщения
Вы не можете редактировать свои сообщения
Вы не можете удалять свои сообщения