Правила форума

Здесь находятся раздачи, на которых не было полного источника (сида) более месяца.
Вы можете вернуть релиз в соответствующий раздел, для этого напишите нам в специальной теме и встаньте на раздачу.
Новые релизы, повторяющие релизы в архиве, повторами не считаются.
Начать новую темуОтветить на тему  [ 1 сообщение ] 
Сообщения
 Добавлено: 2012-12-19 16:41
Top-seeder
Аватара пользователя
Стаж: 9 лет
Сообщений: 1399
Спасибок: 28651
Лайков: 8
Свора / The Breed

Изображение

Перевод: Профессиональный (полное дублирование)
Субтитры: русские
Формат: BDRip, MKV, H.264, AC3
Страна: Германия, ЮАР, США
Режиссер: Николас Мастандреа
Жанр: ужасы, триллер
Продолжительность: 01:30:55
Год выпуска: 2006

В ролях: Мишель Родригес, Оливер Хадсон, Тэрин Мэннинг, Эрик Лайвли, Хилл Харпер, Ник Борэйни, Лиза-Мари Шнайдер

Описание: Увлекательная поездка на заброшенный остров обернулась настоящим кошмаром для веселой компании подростков. Пребывая в уверенности, что вокруг никого нет, друзья решают воспользоваться всеми преимуществами уединения и оторваться по полной программе! Неожиданно они подвергаются нападению диких собак, обосновавшихся на этом острове. Очень скоро, загнанные в угол подростки понимают, что имеют дело не с простыми собаками. Обитающие на острове твари, с измененным генетическим кодом, обладают необыкновенным, почти сверхъестественным умом и неутолимым голодом, а укусы их несут необратимые изменения в организме человека…

Видео: 1920x1080p (16:9), 23.976 fps, AVC MPEG-4 (x264), High@L4.1 ~10.2 Mbps avg, 0.206 bits/(pixel*frame)
Аудио#1: Русский: 48 kHz, AC3, 6 ch, ~640 kbps avg [Профессиональный (полное дублирование)]
Аудио#2: Английский: 48 kHz, AC3, 6 ch, ~640 kbps avg [Оригинал]

Слоган: «Охота началась: ты следующая жертва»

MI
Общее
Уникальный идентификатор : 206570146961125052155709942454403473538 (0x9B67F691F9685E71B399FB4534BC2082)
Полное имя : D:\Закачки\Свора.mkv
Формат : Matroska
Размер файла : 7,46 Гбайт
Продолжительность : 1 ч. 30 м.
Общий поток : 11,8 Мбит/сек
Название фильма : The Breed (2006) - Released by Immortel
Дата кодирования : UTC 2012-12-18 11:11:16
Программа кодирования : mkvmerge v3.3.0 ('Language') built on Mar 24 2010 14:59:24
Библиотека кодирования : libebml v0.8.0 + libmatroska v0.9.0

Видео
Идентификатор : 1
Формат : AVC
Формат/Информация : Advanced Video Codec
Профиль формата : High@L4.1
Параметр CABAC формата : Да
Параметр ReFrames формата : 4 кадра
Параметры GOP формата : M=1, N=48
Идентификатор кодека : V_MPEG4/ISO/AVC
Продолжительность : 1 ч. 30 м.
Вид битрейта : Переменный
Битрейт : 10,2 Мбит/сек
Номинальный битрейт : 11,0 Мбит/сек
Максимальный битрейт : 35,0 Мбит/сек
Ширина : 1920 пикс.
Высота : 1080 пикс.
Соотношение сторон : 16:9
Частота кадров : 23,976 кадр/сек
Цветовое пространство : YUV
Подвыборка цветности : 4:2:0
Битовая глубина : 8 бит
Тип развёртки : Прогрессивная
Бит/(Пиксели*Кадры) : 0.206
Размер потока : 6,50 Гбайт (87%)
Заголовок : The Breed (2006) - Released by Immortel
Библиотека кодирования : x264 core 93 r1542M 5b86182
Настройки программы : cabac=1 / ref=4 / deblock=1:-1:-1 / analyse=0x3:0x133 / me=umh / subme=9 / psy=1 / psy_rd=1.00:0.15 / mixed_ref=1 / me_range=24 / chroma_me=1 / trellis=1 / 8x8dct=1 / cqm=0 / deadzone=21,11 / fast_pskip=0 / chroma_qp_offset=-3 / threads=6 / sliced_threads=0 / slices=4 / nr=0 / decimate=1 / interlaced=0 / constrained_intra=0 / bframes=3 / b_pyramid=0 / b_adapt=2 / b_bias=0 / direct=3 / wpredb=1 / wpredp=0 / keyint=48 / keyint_min=4 / scenecut=40 / intra_refresh=0 / rc_lookahead=48 / rc=abr / mbtree=1 / bitrate=11000 / ratetol=1000000000.0 / qcomp=0.75 / qpmin=10 / qpmax=51 / qpstep=4 / vbv_maxrate=35000 / vbv_bufsize=30000 / ip_ratio=1.10 / aq=1:1.00 / nal_hrd=vbr

Аудио #1
Идентификатор : 2
Формат : AC-3
Формат/Информация : Audio Coding 3
Расширение режима : CM (complete main)
Идентификатор кодека : A_AC3
Продолжительность : 1 ч. 30 м.
Вид битрейта : Постоянный
Битрейт : 640 Кбит/сек
Каналы : 6 каналов
Расположение каналов : Front: L C R, Side: L R, LFE
Частота : 48,0 КГц
Битовая глубина : 16 бит
Метод сжатия : С потерями
Размер потока : 416 Мбайт (5%)
Заголовок : Dubbing
Язык : Russian

Аудио #2
Идентификатор : 3
Формат : AC-3
Формат/Информация : Audio Coding 3
Расширение режима : CM (complete main)
Идентификатор кодека : A_AC3
Продолжительность : 1 ч. 30 м.
Вид битрейта : Постоянный
Битрейт : 640 Кбит/сек
Каналы : 6 каналов
Расположение каналов : Front: L C R, Side: L R, LFE
Частота : 48,0 КГц
Битовая глубина : 16 бит
Метод сжатия : С потерями
Размер потока : 416 Мбайт (5%)
Заголовок : Original
Язык : English

Текст
Идентификатор : 4
Формат : UTF-8
Идентификатор кодека : S_TEXT/UTF8
Идентификатор кодека/Информация : UTF-8 Plain Text
Язык : Russian

Меню
00:00:00.000 : en:00:00:00.000
00:05:50.725 : en:00:05:50.725
00:09:46.961 : en:00:09:46.961
00:15:21.712 : en:00:15:21.712
00:19:58.697 : en:00:19:58.697
00:25:07.339 : en:00:25:07.339
00:29:09.206 : en:00:29:09.206
00:35:41.765 : en:00:35:41.765
00:42:47.523 : en:00:42:47.523
00:47:21.213 : en:00:47:21.213
00:52:25.100 : en:00:52:25.100
00:57:11.219 : en:00:57:11.219
01:04:38.416 : en:01:04:38.416
01:12:55.621 : en:01:12:55.621
01:18:43.135 : en:01:18:43.135
01:23:44.770 : en:01:23:44.770

Свернуть

Скриншоты
ИзображениеИзображениеИзображениеИзображение
Свернуть
Не в сети
Профиль  
Начать новую темуОтветить на тему  [ 1 сообщение ] 
Вы не можете начинать темы
Вы не можете отвечать на сообщения
Вы не можете редактировать свои сообщения
Вы не можете удалять свои сообщения