Правила форума

Здесь находятся раздачи, на которых не было полного источника (сида) более месяца.
Вы можете вернуть релиз в соответствующий раздел, для этого напишите нам в специальной теме и встаньте на раздачу.
Новые релизы, повторяющие релизы в архиве, повторами не считаются.
Начать новую темуОтветить на тему  [ Сообщений: 2 ] 
Сообщения
 Добавлено: 2013-05-14 17:09
Модератор релиз-группы
Аватара пользователя
Стаж: 9 лет 1 месяц
Возраст: 97
Сообщений: 11660
Спасибок: 6533
Лайков: 269
Тачка №19 / Vehicle 19

Изображение


Год выпуска: 2013
Страна: США, ЮАР
Жанр: боевик, триллер, криминал
Продолжительность: 01:25:10
Перевод: Профессиональный (дубляж) Звук с TS
Двухголосый, закадровый
Оригинальная звуковая дорожка

Режиссёр: Мукунда Майкл Дьюил
В ролях: Пол Уокер, Наима МакЛин, Ги Де Виллерс, Лэйла Хайдариан, Тшепо Масеко, Андриан Мазив, Велиль Нзуза, Мангалисо Нгема, Эрнест Кубайи, Элиз Ван Никерк
Описание: Что делать, если из багажника арендованной в незнакомом городе тачки в салон вываливается связанная девушка? Сдать бедолагу в ближайший полицейский участок? Спасибо, Кэп, но не все так просто! Эта девушка важный свидетель в большом заговоре, и ее уже приговорили к смерти… На хвосте висят все копы города, выход один — вдавить педаль газа в пол и считать дырки от пуль и разбитые полицейские машины! Гонки на выживание начинаются!
Изображение

Качество: BDRip 1080p
Формат: mkv
Видео: MPEG-4; AVC; ~13.4 Mbps; 1920 x 800p; 23.976 fps; High Profile 4.1
Аудио #1: AC-3; 48.0 KHz; 320 Kbps; 6 ch - L C R, Side: L R, LFE; 16 bits (Дублированный)
Аудио #2: AC-3; 48.0 KHz; 448 Kbps; 6 ch - L C R, Side: L R, LFE; 16 bits (Двухголосый, закадровый)
Аудио #3: [ENG] DTS; 48.0 KHz; 1509 kbps; 6 ch L C R, Side: L R, LFE; 16 bit (Английская оригинальная дорожка)
Скриншоты

Изображение

Изображение

Изображение
Свернуть
Mi
General
Unique ID : 251450848041813496784334244784686034147 (0xBD2BABF9AD7D915496141C0DC87CECE3)
Complete name : D:\VEHICLE.19.2013.BDRip.1080p2RUS.mkv
Format : Matroska
Format version : Version 4 / Version 2
File size : 9.53 GiB
Duration : 1h 25mn
Overall bit rate : 16.0 Mbps
Encoded date : UTC 2013-05-12 15:00:57
Writing application : mkvmerge v6.2.0 ('Promised Land') built on Apr 28 2013 12:22:01
Writing library : libebml v1.3.0 + libmatroska v1.4.0

Video
ID : 1
Format : AVC
Format/Info : Advanced Video Codec
Format profile : High@L4.1
Format settings, CABAC : Yes
Format settings, ReFrames : 5 frames
Codec ID : V_MPEG4/ISO/AVC
Duration : 1h 25mn
Bit rate : 13.4 Mbps
Width : 1 920 pixels
Height : 800 pixels
Display aspect ratio : 2.40:1
Frame rate mode : Constant
Frame rate : 23.976 fps
Color space : YUV
Chroma subsampling : 4:2:0
Bit depth : 8 bits
Scan type : Progressive
Bits/(Pixel*Frame) : 0.364
Stream size : 7.98 GiB (84%)
Writing library : x264 core 130 r2274+704+40 24c804d tMod+MixAQ [8-bit@4:2:0 X86_64]
Encoding settings : cabac=1 / ref=5 / deblock=1:-3:-3 / analyse=0x3:0x113 / me=umh / subme=11 / psy=1 / fade_compensate=0.00 / psy_rd=1.05:0.00 / mixed_ref=1 / me_range=48 / chroma_me=1 / trellis=2 / 8x8dct=1 / cqm=0 / deadzone=21,11 / fast_pskip=0 / chroma_qp_offset=-2 / threads=36 / lookahead_threads=6 / sliced_threads=0 / nr=0 / decimate=0 / interlaced=0 / bluray_compat=0 / constrained_intra=0 / fgo=0 / bframes=8 / b_pyramid=2 / b_adapt=2 / b_bias=0 / direct=3 / weightb=1 / open_gop=0 / weightp=2 / keyint=240 / keyint_min=24 / scenecut=40 / intra_refresh=0 / rc=crf / mbtree=0 / crf=17.2000 / qcomp=0.72 / qpmin=0 / qpmax=69 / qpstep=4 / ip_ratio=1.25 / pb_ratio=1.20 / aq=4:0.80 / aq-sensitivity=10.00 / aq-ifactor=1.00 / aq-pfactor=1.00 / aq-bfactor=1.00 / aq2=0
Language : English
Default : Yes
Forced : No

Audio #1
ID : 2
Format : AC-3
Format/Info : Audio Coding 3
Mode extension : CM (complete main)
Format settings, Endianness : Big
Codec ID : A_AC3
Duration : 1h 25mn
Bit rate mode : Constant
Bit rate : 320 Kbps
Channel(s) : 6 channels
Channel positions : Front: L C R, Side: L R, LFE
Sampling rate : 48.0 KHz
Bit depth : 16 bits
Compression mode : Lossy
Stream size : 195 MiB (2%)
Title : Дублированный
Language : Russian
Default : Yes
Forced : No

Audio #2
ID : 3
Format : AC-3
Format/Info : Audio Coding 3
Mode extension : CM (complete main)
Format settings, Endianness : Big
Codec ID : A_AC3
Duration : 1h 25mn
Bit rate mode : Constant
Bit rate : 448 Kbps
Channel(s) : 6 channels
Channel positions : Front: L C R, Side: L R, LFE
Sampling rate : 48.0 KHz
Bit depth : 16 bits
Compression mode : Lossy
Stream size : 273 MiB (3%)
Title : Двухголосый
Language : Russian
Default : No
Forced : No

Audio #3
ID : 4
Format : DTS
Format/Info : Digital Theater Systems
Mode : 16
Format settings, Endianness : Big
Codec ID : A_DTS
Duration : 1h 25mn
Bit rate mode : Constant
Bit rate : 1 509 Kbps
Channel(s) : 6 channels
Channel positions : Front: L C R, Side: L R, LFE
Sampling rate : 48.0 KHz
Bit depth : 16 bits
Compression mode : Lossy
Stream size : 919 MiB (9%)
Title : Original English
Language : English
Default : No
Forced : No

Свернуть
_________________
Изображение
Не в сети
Профиль  
 Добавлено: 2013-06-12 09:55 (спустя 28 дней)
Модератор
Аватара пользователя
Стаж: 8 лет 11 месяцев
Сообщений: 516
Спасибок: 26888
Лайков: 1
viewtopic.php?f=1743&t=510746
Не в сети
Профиль  
Начать новую темуОтветить на тему  [ Сообщений: 2 ] 
Вы не можете начинать темы
Вы не можете отвечать на сообщения
Вы не можете редактировать свои сообщения
Вы не можете удалять свои сообщения