Правила форума

Здесь находятся раздачи, на которых не было полного источника (сида) более месяца.
Вы можете вернуть релиз в соответствующий раздел, для этого напишите нам в специальной теме и встаньте на раздачу.
Новые релизы, повторяющие релизы в архиве, повторами не считаются.
Начать новую темуОтветить на тему  [ Сообщений: 5 ] 
Сообщения
 Добавлено: 2012-08-25 08:32
Модератор релиз-группы
Аватара пользователя
Стаж: 9 лет 1 месяц
Возраст: 97
Сообщений: 11660
Спасибок: 6533
Лайков: 269
Танго и Кэш / Tango & Cash


Изображение


Год выпуска: 1989
Страна: США
Жанр: боевик, триллер, комедия, криминал
Продолжительность: 1:43:46
Перевод:Профессиональный (дублированный) - русский
Профессиональный (многоголосый закадровый) - НТВ
Авторский (одноголосый закадровый) - Гаврилов
Авторский (одноголосый закадровый) - Дохалов
Авторский (одноголосый закадровый) - Горчаков

Режиссер: Андрей Кончаловский, Альберт Магноли

В ролях: Сильвестр Сталлоне /Sylvester Stallone/, Курт Расселл /Kurt Russell/, Джек Пэлэнс /Jack Palance/, Тери Хэтчер /Teri Hatcher/, Брайон Джеймс /Brion James/
Описание: Герои фильма — друзья — полицейские: Танго и Кэш. Эти соперничающие друг с другом напарники обладают одной общей чертой: каждый думает, что он самый лучший, и каждый имеет бесспорные доказательства этого.
Изображение
Качество: BDRip 1080p
Формат: mkv
Видео: 1920x804 (2,40:1), 9509 Кбит/сек, 23,976 кадра/сек
Аудио (Rus): DTS, 6ch, 48 KHz, 768 kbps - Дубляж
Аудио (Rus): АС3, 6 ch, 48 KHz, 256 kbps - НТВ
Аудио (Rus): АС3, 6 ch, 48 KHz, 640 kbps - Гаврилов
Аудио (Rus): АС3, 6 ch, 48 KHz, 384 kbps - Дохалов
Аудио (Rus): АС3, 6 ch, 48 KHz, 384 kbps - Горчаков



"Скриншоты"
Изображение

Изображение

Изображение
Свернуть
Mi
Format : Matroska
Format version : Version 2
File size : 8.64 GiB
Duration : 1h 43mn
Overall bit rate : 11.9 Mbps
Movie name : Tango & Cash (1989)
Encoded date : UTC 2012-08-25 05:07:06
Writing application : mkvmerge v5.7.0 ('The Whirlwind') built on Jul 8 2012 20:08:51
Writing library : libebml v1.2.3 + libmatroska v1.3.0
Attachment : Yes / Yes / Yes

Video
ID : 1
Format : AVC
Format/Info : Advanced Video Codec
Format profile : High@L5.0
Format settings, CABAC : Yes
Format settings, ReFrames : 8 frames
Muxing mode : Header stripping
Codec ID : V_MPEG4/ISO/AVC
Duration : 1h 43mn
Bit rate : 9 509 Kbps
Width : 1 920 pixels
Height : 804 pixels
Display aspect ratio : 2.40:1
Frame rate : 23.976 fps
Color space : YUV
Chroma subsampling : 4:2:0
Bit depth : 8 bits
Scan type : Progressive
Bits/(Pixel*Frame) : 0.257
Stream size : 6.72 GiB (78%)
Title : 9509kbps 1080p x264
Writing library : x264 core 67 r1128M 682b54d
Encoding settings : cabac=1 / ref=8 / deblock=1:-1:-1 / analyse=0x3:0x133 / me=umh / subme=8 / psy_rd=1.0:0.0 / mixed_ref=1 / me_range=16 / chroma_me=1 / trellis=2 / 8x8dct=1 / cqm=0 / deadzone=21,11 / chroma_qp_offset=-2 / threads=3 / nr=0 / decimate=1 / mbaff=0 / bframes=3 / b_pyramid=1 / b_adapt=2 / b_bias=0 / direct=3 / wpredb=1 / keyint=250 / keyint_min=25 / scenecut=40 / rc=2pass / bitrate=9509 / ratetol=1.0 / qcomp=0.60 / qpmin=10 / qpmax=51 / qpstep=4 / cplxblur=20.0 / qblur=0.5 / ip_ratio=1.40 / pb_ratio=1.30 / aq=1:1.00
Language : English
Default : Yes
Forced : No

Audio #1
ID : 2
Format : DTS
Format/Info : Digital Theater Systems
Muxing mode : Header stripping
Codec ID : A_DTS
Duration : 1h 43mn
Bit rate mode : Constant
Bit rate : 755 Kbps
Channel(s) : 6 channels
Channel positions : Front: L C R, Side: L R, LFE
Sampling rate : 48.0 KHz
Bit depth : 24 bits
Compression mode : Lossy
Stream size : 560 MiB (6%)
Title : DTS, 6ch, 768 kbps - Дубляж
Language : Russian
Default : Yes
Forced : No

Audio #2
ID : 3
Format : AC-3
Format/Info : Audio Coding 3
Mode extension : CM (complete main)
Format settings, Endianness : Big
Muxing mode : Header stripping
Codec ID : A_AC3
Duration : 1h 43mn
Bit rate mode : Constant
Bit rate : 256 Kbps
Channel(s) : 6 channels
Channel positions : Front: L C R, Side: L R, LFE
Sampling rate : 48.0 KHz
Bit depth : 16 bits
Compression mode : Lossy
Stream size : 190 MiB (2%)
Title : AC3, 6 ch, ~256 kbps - MVO (НТВ)
Language : Russian
Default : No
Forced : No

Audio #3
ID : 4
Format : AC-3
Format/Info : Audio Coding 3
Mode extension : CM (complete main)
Format settings, Endianness : Big
Muxing mode : Header stripping
Codec ID : A_AC3
Duration : 1h 43mn
Bit rate mode : Constant
Bit rate : 640 Kbps
Channel(s) : 6 channels
Channel positions : Front: L C R, Side: L R, LFE
Sampling rate : 48.0 KHz
Bit depth : 16 bits
Compression mode : Lossy
Stream size : 475 MiB (5%)
Title : AC3, 6 ch, ~640 kbps - AVO (Гаврилов)
Language : Russian
Default : No
Forced : No

Audio #4
ID : 5
Format : AC-3
Format/Info : Audio Coding 3
Mode extension : CM (complete main)
Format settings, Endianness : Big
Muxing mode : Header stripping
Codec ID : A_AC3
Duration : 1h 43mn
Bit rate mode : Constant
Bit rate : 384 Kbps
Channel(s) : 6 channels
Channel positions : Front: L C R, Side: L R, LFE
Sampling rate : 48.0 KHz
Bit depth : 16 bits
Compression mode : Lossy
Stream size : 285 MiB (3%)
Title : AC3, 6 ch, ~384 kbps - AVO (Дохалов)
Language : Russian
Default : No
Forced : No

Audio #5
ID : 6
Format : AC-3
Format/Info : Audio Coding 3
Mode extension : CM (complete main)
Format settings, Endianness : Big
Muxing mode : Header stripping
Codec ID : A_AC3
Duration : 1h 43mn
Bit rate mode : Constant
Bit rate : 384 Kbps
Channel(s) : 6 channels
Channel positions : Front: L C R, Side: L R, LFE
Sampling rate : 48.0 KHz
Bit depth : 16 bits
Compression mode : Lossy
Stream size : 285 MiB (3%)
Title : AC3, 6 ch, ~384 kbps - AVO (Горчаков)
Language : Russian
Default : No
Forced : No

Свернуть
_________________
Изображение
Не в сети
Профиль  
 Добавлено: 2012-08-26 18:20 (спустя 1 день 9 часов)
Аватара пользователя
Стаж: 7 лет 3 месяца
Сообщений: 245
Лайков: 3
о-дааа. Помню эпизод, с канатной веревкой)
Не в сети
Профиль  
 Добавлено: 2012-09-01 13:03 (спустя 5 дней)
Аватара пользователя
Стаж: 8 лет 2 месяца
Сообщений: 691
Спасибок: 11361
Лайков: 1
скачал - почему-то квадратами рассыпается. кодекпак свежий
Не в сети
Профиль  
 Добавлено: 2012-09-01 13:37 (спустя 33 минуты)
Модератор релиз-группы
Аватара пользователя
Стаж: 9 лет 1 месяц
Возраст: 97
Сообщений: 11660
Спасибок: 6533
Лайков: 269
:ne_znayu: у меня нормально
Изображение
Свернуть
_________________
Изображение
Не в сети
Профиль  
 Добавлено: 2012-09-02 07:26 (спустя 17 часов)
Аватара пользователя
Стаж: 8 лет 2 месяца
Сообщений: 691
Спасибок: 11361
Лайков: 1
поставил K-Lite Codec Pack 9.2.0 Full - пошло. до этого стоял стандарт
Не в сети
Профиль  
Начать новую темуОтветить на тему  [ Сообщений: 5 ] 
Вы не можете начинать темы
Вы не можете отвечать на сообщения
Вы не можете редактировать свои сообщения
Вы не можете удалять свои сообщения