Правила форума

Здесь находятся раздачи, на которых не было полного источника (сида) более месяца.
Вы можете вернуть релиз в соответствующий раздел, для этого напишите нам в специальной теме и встаньте на раздачу.
Новые релизы, повторяющие релизы в архиве, повторами не считаются.
Начать новую темуОтветить на тему  [ 1 сообщение ] 
Сообщения
 Добавлено: 2014-01-10 22:12
DVD Release Group
Аватара пользователя
Стаж: 7 лет 1 месяц
Сообщений: 3568
Спасибок: 247569
Лайков: 1020
Телекинез

Carrie


Изображение


Год выпуска: 2013
Страна: США
Жанр: Ужасы, драма
Продолжительность: 01:40:56
Перевод: Профессиональный (полное дублирование) Чистый звук
Субтитры: Русские, английские
Режиссер: Кимберли Пирс
В ролях: Хлоя Грейс Морец, Джулианна Мур, Габриэлла Уайлд, Портия Даблдэй, Алекс Расселл, Зои Белкин, Энсел Эльгорт, Саманта Вайнштейн, Карисса Стрэйн, Джуди Грир
Описание: Застенчивая Кэрри Уайт живет вместе с матерью — набожной пуританкой Маргарет. Девушка страдает от издевательств одноклассников и от воспитания строгой матери. Постепенно она открывает в себе способности к телекинезу. Одноклассники готовят на выпускной грандиозную шутку над Кэрри, но не представляют, чем она обернется.
Изображение
Качество: BDRip 720p
Формат: MKV
Видео кодек: H.264
Аудио кодек: AC3, DTS
Видео: 1280x544 23.98fps 8309kbps
Аудио:
Аудио Rus: AC3 48kHz 2ch 384kbps
Аудио Eng: DTS 48kHz 6ch 1510kbps
"MediaInfo"
Формат : Matroska
Версия формата : Version 2
Размер файла : 7,34 Гбайт
Продолжительность : 1 ч. 40 м.
Общий поток : 10,4 Мбит/сек
Дата кодирования : UTC 2014-01-10 17:36:08
Программа кодирования : mkvmerge v6.6.0 ('The Edge Of The In Between') built on Dec 1 2013 17:55:00
Библиотека кодирования : libebml v1.3.0 + libmatroska v1.4.1

Видео
Идентификатор : 1
Формат : AVC
Формат/Информация : Advanced Video Codec
Профиль формата : High@L4.1
Параметр CABAC формата : Да
Параметр ReFrames формата : 12 кадров
Идентификатор кодека : V_MPEG4/ISO/AVC
Продолжительность : 1 ч. 40 м.
Битрейт : 8309 Кбит/сек
Ширина : 1280 пикселей
Высота : 544 пикселя
Соотношение сторон : 2,35:1
Частота кадров : 23,976 кадра/сек
Цветовое пространство : YUV
Субдискретизация насыщенности : 4:2:0
Битовая глубина : 8 бит
Тип развёртки : Прогрессивная
Бит/(Пиксели*Кадры) : 0.498
Размер потока : 5,86 Гбайт (80%)
Библиотека кодирования : x264 core 140 r2377kMod 1ca7bb9
Настройки программы : cabac=1 / ref=12 / deblock=1:0:0 / analyse=0x3:0x133 / me=tesa / subme=11 / psy=1 / fade_compensate=0.00 / psy_rd=1.00:0.00 / mixed_ref=1 / me_range=24 / chroma_me=1 / trellis=2 / 8x8dct=1 / cqm=0 / deadzone=21,11 / fast_pskip=0 / chroma_qp_offset=-2 / threads=6 / lookahead_threads=1 / sliced_threads=0 / nr=0 / decimate=1 / interlaced=0 / bluray_compat=0 / constrained_intra=0 / fgo=0 / bframes=12 / b_pyramid=2 / b_adapt=2 / b_bias=0 / direct=3 / weightb=1 / open_gop=0 / weightp=2 / keyint=250 / keyint_min=23 / scenecut=40 / intra_refresh=0 / rc=crf / mbtree=0 / crf=15.6500 / qcomp=0.70 / qpmin=0 / qpmax=69 / qpstep=4 / ip_ratio=1.30 / pb_ratio=1.20 / aq=1:0.80
Язык : English
Default : Да
Forced : Нет
Коэффициенты матрицы : BT.709-5, BT.1361, IEC 61966-2-4 709, SMPTE RP177

Аудио #1
Идентификатор : 2
Формат : AC-3
Формат/Информация : Audio Coding 3
Расширение режима : CM (complete main)
Идентификатор кодека : A_AC3
Продолжительность : 1 ч. 40 м.
Вид битрейта : Постоянный
Битрейт : 384 Кбит/сек
Каналы : 2 канала
Расположение каналов : Front: L R
Частота : 48,0 КГц
Битовая глубина : 16 бит
Метод сжатия : С потерями
Размер потока : 277 Мбайт (4%)
Язык : Russian
Default : Да
Forced : Нет

Аудио #2
Идентификатор : 3
Формат : DTS
Формат/Информация : Digital Theater Systems
Идентификатор кодека : A_DTS
Продолжительность : 1 ч. 40 м.
Вид битрейта : Постоянный
Битрейт : 1510 Кбит/сек
Каналы : 6 каналов
Расположение каналов : Front: L C R, Side: L R, LFE
Частота : 48,0 КГц
Битовая глубина : 24 бит
Метод сжатия : С потерями
Размер потока : 1,06 Гбайт (15%)
Язык : English
Default : Нет
Forced : Нет

Текст #1
Идентификатор : 4
Формат : UTF-8
Идентификатор кодека : S_TEXT/UTF8
Идентификатор кодека/Информация : UTF-8 Plain Text
Заголовок : notabenoid
Язык : Russian
Default : Нет
Forced : Нет

Текст #2
Идентификатор : 5
Формат : UTF-8
Идентификатор кодека : S_TEXT/UTF8
Идентификатор кодека/Информация : UTF-8 Plain Text
Язык : English
Default : Нет
Forced : Нет

Меню
00:00:00.000 : en:00:00:00.000
00:04:14.546 : en:00:04:14.546
00:06:37.856 : en:00:06:37.856
00:10:07.649 : en:00:10:07.649
00:12:03.681 : en:00:12:03.681
00:14:46.177 : en:00:14:46.177
00:18:50.463 : en:00:18:50.463
00:23:15.060 : en:00:23:15.060
00:26:51.401 : en:00:26:51.401
00:30:50.974 : en:00:30:50.974
00:32:27.863 : en:00:32:27.863
00:36:18.093 : en:00:36:18.093
00:38:20.340 : en:00:38:20.340
00:41:47.755 : en:00:41:47.755
00:46:22.196 : en:00:46:22.196
00:51:01.850 : en:00:51:01.850
00:53:09.853 : en:00:53:09.853
00:55:47.678 : en:00:55:47.678
01:00:52.065 : en:01:00:52.065
01:04:02.338 : en:01:04:02.338
01:07:03.311 : en:01:07:03.311
01:09:38.383 : en:01:09:38.383
01:13:05.381 : en:01:13:05.381
01:18:25.159 : en:01:18:25.159
01:22:46.712 : en:01:22:46.712
01:25:17.863 : en:01:25:17.863
01:29:25.360 : en:01:29:25.360
01:33:36.402 : en:01:33:36.402
Свернуть

"Скриншоты"
Изображение
Изображение
Изображение
Изображение
Изображение
Свернуть

Раздача группы:
Изображение
Не в сети
Профиль  
Начать новую темуОтветить на тему  [ 1 сообщение ] 
Вы не можете начинать темы
Вы не можете отвечать на сообщения
Вы не можете редактировать свои сообщения
Вы не можете удалять свои сообщения