Правила форума

Здесь находятся раздачи, на которых не было полного источника (сида) более месяца.
Вы можете вернуть релиз в соответствующий раздел, для этого напишите нам в специальной теме и встаньте на раздачу.
Новые релизы, повторяющие релизы в архиве, повторами не считаются.
Начать новую темуОтветить на тему  [ 1 сообщение ] 
Сообщения
 Добавлено: 2012-10-20 15:18
Top-releaser
Аватара пользователя
Стаж: 6 лет 7 месяцев
Сообщений: 2078
Спасибок: 3230
Лайков: 9
Изображение

Телохранитель
The Bodyguard


Год выпуска: 1992
Страна: США
Слоган: «Ни на миг не упускать ее из вида. Ни на секунду не терять бдительность. Не позволить себе в нее влюбиться.»
Жанр: триллер, драма, мелодрама, музыка
Продолжительность: 02:09:21
Перевод: Профессиональный (полное дублирование)
Режиссер: Мик Джексон
Сценарий: Лоуренс Кэздан
Продюсер: Кевин Костнер, Лоуренс Кэздан, Джим Уилсон
Оператор: Эндрю Данн
Композитор: Аллан Дэннис Рич, Алан Сильвестри
В ролях: Кевин Костнер, Уитни Хьюстон, Гари Кемп, Билл Коббс, Ральф Уэйт, Томас Арана, Мишель Ламар Ричардс, Майк Старр, Кристофер Бирт, Девон Никсон, Джерри Бэммен, Джо Урла
Бюджет: $40 000 000
Сборы в США: $121 945 720
Сборы в мире: $410 945 720
Мировая премьера: 25 ноября 1992
Релиз на DVD: 15 июня 2009, «Юниверсал Пикчерс Рус»
Релиз на Blu-ray: 15 марта 2012, «CP Дистрибуция»
Описание: Фрэнк Фармер, сотрудник службы безопасности президента Рейгана, чувствует себя отчасти виновным в том, что в его отсутствие на президента было совершено покушение. Он покидает службу и за большой гонорар, но все же нехотя, нанимается телохранителем чернокожей певицы и актрисы Рэйчел Мэррон, которая постоянно получает письма с угрозами.
Первоначальная антипатия, возникшая между ними, постепенно перерастает в любовь. Сложившаяся ситуация мешает телохранителю исполнять свой профессиональный долг, что приводит к частым конфликтам между Фрэнком и Рэйчел. Фармер приходит к выводу, что угроза жизни Рэйчел исходит отнюдь не от психопата, а от профессионального убийцы.

Раздача группы: Изображение

Изображение User Rating: 7.971 (25 141)
Изображение User Rating: 5.80 (53 217)
MPAA: R - Лицам до 17 лет обязательно присутствие взрослого
Качество: BDRip, 1080p
Формат: Matroska
Видео: AVC; 1920x1080 (16:9); 15629 Kbps; 23,976 fps; 0,314 bit/pixel
Аудио №1: Russian; AC3; 640 Kbps; CBR; 6 ch - Дубляж CEE
Аудио №2: English; DTS; 1509 Kbps; CBR; 6 ch; 24 bit
Аудио №3: Russian; DTS; 768 Kbps; CBR; 6 ch - Двухголосый закадровый, НТВ+
Аудио №4: Russian; DTS; 1510 Kbps; CBR; 6 ch - Одноголосый закадровый, А.Гаврилов
Аудио №5: Russian; DTS; 755 Kbps; CBR; 6 ch - Одноголосый закадровый, В.Горчаков
Аудио №6: Russian; DTS; 1510 Kbps; CBR; 6 ch - Одноголосый закадровый, Ю.Живов
Аудио №7: Russian; AC3; 192 Kbps; CBR; 6 ch - Одноголосый закадровый, Неизвестный / "Весельчак"
Аудио №8: Russian; AC3; 192 Kbps; CBR; 6 ch - Двухголосый закадровый, 1+1
Субтитры: Russian, English

MediaInfo
Общее
Уникальный идентификатор : 216874884006880753993361867515092324744 (0xA328955513F27277BD5A73467458D188)
Полное имя : Z:\WWW\TR-Downloads\The.Bodyguard.1080p.[R.G.Daredevil]\The.Bodyguard.1080p.mkv
Формат : Matroska
Версия формата : Version 2
Размер файла : 16,4 Гбайт
Продолжительность : 2 ч. 9 м.
Общий поток : 18,1 Мбит/сек
Дата кодирования : UTC 2012-04-30 06:42:14
Программа кодирования : mkvmerge v5.5.0 ('Healer') built on Apr 6 2012 21:43:24
Библиотека кодирования : libebml v1.2.3 + libmatroska v1.3.0

Видео
Идентификатор : 1
Формат : AVC
Формат/Информация : Advanced Video Codec
Профиль формата : High@L4.1
Параметр CABAC формата : Да
Параметр ReFrames формата : 4 кадра
Идентификатор кодека : V_MPEG4/ISO/AVC
Продолжительность : 2 ч. 9 м.
Битрейт : 16,0 Мбит/сек
Ширина : 1920 пикселей
Высота : 1080 пикселей
Соотношение сторон : 16:9
Частота кадров : 23,976 кадра/сек
Цветовое пространство : YUV
Субдискретизация насыщенности : 4:2:0
Битовая глубина : 8 бит
Тип развёртки : Прогрессивная
Бит/(Пиксели*Кадры) : 0.322
Размер потока : 14,1 Гбайт (86%)
Заголовок : The Bodyguard (1992)
Библиотека кодирования : x264 core 122 r2184 5c85e0a
Настройки программы : cabac=1 / ref=4 / deblock=1:-3:-3 / analyse=0x3:0x113 / me=tesa / subme=11 / psy=1 / psy_rd=1.00:0.00 / mixed_ref=1 / me_range=24 / chroma_me=1 / trellis=2 / 8x8dct=1 / cqm=0 / deadzone=21,11 / fast_pskip=0 / chroma_qp_offset=-2 / threads=12 / sliced_threads=0 / nr=0 / decimate=0 / interlaced=0 / bluray_compat=0 / constrained_intra=0 / bframes=7 / b_pyramid=2 / b_adapt=2 / b_bias=0 / direct=3 / weightb=1 / open_gop=0 / weightp=2 / keyint=240 / keyint_min=24 / scenecut=40 / intra_refresh=0 / rc_lookahead=60 / rc=2pass / mbtree=0 / bitrate=16000 / ratetol=1.0 / qcomp=0.80 / qpmin=0 / qpmax=69 / qpstep=4 / cplxblur=20.0 / qblur=0.5 / vbv_maxrate=50000 / vbv_bufsize=62500 / nal_hrd=none / ip_ratio=1.40 / pb_ratio=1.30 / aq=1:0.80
Язык : English
Default : Да
Forced : Нет
Коэффициенты матрицы : BT.709-5, BT.1361, IEC 61966-2-4 709, SMPTE RP177

Аудио #1
Идентификатор : 2
Формат : AC-3
Формат/Информация : Audio Coding 3
Расширение режима : CM (complete main)
Параметр Endianness формата : Big
Идентификатор кодека : A_AC3
Продолжительность : 2 ч. 9 м.
Вид битрейта : Постоянный
Битрейт : 640 Кбит/сек
Каналы : 6 каналов
Расположение каналов : Front: L C R, Side: L R, LFE
Частота : 48,0 КГц
Битовая глубина : 16 бит
Метод сжатия : С потерями
Размер потока : 592 Мбайт (4%)
Заголовок : DUB @ AC3 5.1 (Blu-ray EUR)
Язык : Russian
Default : Да
Forced : Нет

Аудио #2
Идентификатор : 3
Формат : DTS
Формат/Информация : Digital Theater Systems
Идентификатор кодека : A_DTS
Продолжительность : 2 ч. 9 м.
Вид битрейта : Постоянный
Битрейт : 1510 Кбит/сек
Каналы : 6 каналов
Расположение каналов : Front: L C R, Side: L R, LFE
Частота : 48,0 КГц
Битовая глубина : 24 бит
Метод сжатия : С потерями
Размер потока : 1,36 Гбайт (8%)
Заголовок : DTS 5.1, 24 bits, 1509kbps, 48kHz (Blu-ray EUR DTS-HD MA core)
Язык : English
Default : Нет
Forced : Нет

Текст #1
Идентификатор : 4
Формат : UTF-8
Идентификатор кодека : S_TEXT/UTF8
Идентификатор кодека/Информация : UTF-8 Plain Text
Заголовок : Full (Blu-ray EUR --> srt)
Язык : Russian
Default : Нет
Forced : Нет

Текст #2
Идентификатор : 5
Формат : UTF-8
Идентификатор кодека : S_TEXT/UTF8
Идентификатор кодека/Информация : UTF-8 Plain Text
Заголовок : Full SDH (Blu-ray EUR --> srt)
Язык : English
Default : Нет
Forced : Нет

Меню
00:00:00.000 : en:00:00:00.000
00:03:48.562 : en:00:03:48.562
00:05:22.364 : en:00:05:22.364
00:12:46.307 : en:00:12:46.307
00:17:19.247 : en:00:17:19.247
00:19:35.132 : en:00:19:35.132
00:23:45.424 : en:00:23:45.424
00:26:13.697 : en:00:26:13.697
00:30:11.476 : en:00:30:11.476
00:31:23.507 : en:00:31:23.507
00:35:30.754 : en:00:35:30.754
00:38:39.776 : en:00:38:39.776
00:42:08.067 : en:00:42:08.067
00:44:09.272 : en:00:44:09.272
00:46:35.668 : en:00:46:35.668
00:47:39.148 : en:00:47:39.148
00:51:51.692 : en:00:51:51.692
00:54:09.121 : en:00:54:09.121
01:01:46.077 : en:01:01:46.077
01:04:40.418 : en:01:04:40.418
01:11:01.966 : en:01:11:01.966
01:14:17.912 : en:01:14:17.912
01:17:41.115 : en:01:17:41.115
01:20:55.017 : en:01:20:55.017
01:26:19.758 : en:01:26:19.758
01:30:13.033 : en:01:30:13.033
01:34:01.010 : en:01:34:01.010
01:36:18.898 : en:01:36:18.898
01:37:12.118 : en:01:37:12.118
01:40:27.355 : en:01:40:27.355
01:43:40.464 : en:01:43:40.464
01:47:27.858 : en:01:47:27.858
01:48:43.809 : en:01:48:43.809
01:53:37.352 : en:01:53:37.352
01:56:02.956 : en:01:56:02.956
01:59:26.159 : en:01:59:26.159
02:00:54.581 : en:02:00:54.581
02:03:34.407 : en:02:03:34.407
Свернуть
"Знаете ли Вы, что..."
  • Песня «I will always love you» была позаимствована из старого репертуара Долли Партон.
  • Для молодой певицы Уитни Хьюстон роль в картине стала первой в большом кино.
  • Сценарий двадцатилетней давности Лоренса Кэздана писался в расчете на актера Стива МакКуина и певицу Дайану Росс.
  • Особняк Рейчел тот же, что и в фильме «Крёстный отец» (1972).
  • Рейчел и Френк идут смотреть картину Акиры Курасавы «Yojimbo» (1961), которая была выпущена в США под названием «Телохранитель» (The Bodyguard).
  • Саундтрек к фильму, включая композицию «I will always love you», вошёл в список 50 самых продаваемых музыкальных альбомов 20 века (в списке также фигурируют звуковые дорожки к фильмам «Титаник», «Грязные танцы» и мультфильму «Король-лев» с песнями в исполнении Элтона Джона).
  • Клип Рэйчел Мэррон, который демонстрируется на экранах во время выступления в клубе практически целиком смонтирован из фрагментов фильма «Метрополис» Фрица Ланга. Также на девятой минуте фильма встречается копия робота из «Метрополиса».
Свернуть
Скриншоты

Изображение
Изображение
Изображение
Изображение
Изображение
Свернуть
Не в сети
Профиль  
Начать новую темуОтветить на тему  [ 1 сообщение ] 
Вы не можете начинать темы
Вы не можете отвечать на сообщения
Вы не можете редактировать свои сообщения
Вы не можете удалять свои сообщения