Правила форума

Здесь находятся раздачи, на которых не было полного источника (сида) более месяца.
Вы можете вернуть релиз в соответствующий раздел, для этого напишите нам в специальной теме и встаньте на раздачу.
Новые релизы, повторяющие релизы в архиве, повторами не считаются.
Начать новую темуОтветить на тему  [ Сообщений: 4 ] 
Сообщения
 Добавлено: 2011-03-19 02:59
Аватара пользователя
Стаж: 6 лет 4 месяца
Возраст: 24
Сообщений: 466
Спасибок: 954
Лайков: 2
Тень / Shadow

Изображение


Год выпуска: 2009
Страна: Италия
Жанр: ужaсы
Продолжительность: 01:14:28
Перевод: Любительский (одноголосый закадровый) + Оригинальная звуковая дорожка

Режиссёр: Федерико Дзампальоне / Federico Zampaglione
В ролях: Джэйк Максворфи, Карина Теста, Нуот Аркуинт, Крис Коппола, Оттавиано Блитч, Мэтт Патрези, Эмилио Де Марчини и др.
Описание: Молодой солдат после очередной операции в Ираке решает отдохнуть. Познакомившись с молодой девушкой, и продолжив путешествие вместе, они предстают перед лицом такого ужаса, который Дэвиду не приходилось видеть даже во время его службы.
Рейтинг MPAA: Рейтинг NC-17 (Лица, не достигшие 17 лет, на фильм не допускаются)

Сэмпл: http://multi-up.com/454155

Тип релиза: BDRip 720p
Контейнер: MKV

Видео: H.264, 1280x544, 25.000 fps, 4 794 Kbps
Аудио 1: Russian: AC-3, (6 channels), 448 Kbps, 48KHz
Аудио 2: English: DTS, (6 channels), 1 510 Kbps, 48KHz
Субтитры SRT (Soft Sub)

MediaInfo
Общее
Уникальный идентификатор : 171752362944233390812540506435938443643 (0x81364D4818B8E873BA6B003302DC617B)
Полное имя : C:\Users\Waisper\Documents\Folot\Shadow.2009.720p.BDRip.Rus.Eng.mkv
Формат : Matroska
Размер файла : 3,50 Гбайт
Продолжительность : 1 ч. 14 м.
Общий поток : 6727 Кбит/сек
Дата кодирования : UTC 2011-03-18 15:52:47
Программа кодирования : mkvmerge v2.9.8 ('C'est le bon') built on Aug 13 2009 12:49:06
Библиотека кодирования : libebml v0.7.7 + libmatroska v0.8.1

Видео
Идентификатор : 1
Формат : AVC
Формат/Информация : Advanced Video Codec
Профиль формата : High@L4.1
Параметр CABAC формата : Да
Параметр ReFrames формата : 4 кадры
Идентификатор кодека : V_MPEG4/ISO/AVC
Продолжительность : 1 ч. 14 м.
Битрейт : 4794 Кбит/сек
Ширина : 1280 пикс.
Высота : 544 пикс.
Соотношение сторон : 2,35:1
Частота кадров : 25,000 кадр/сек
Цветовое пространство : YUV
Подвыборка цветности : 4:2:0
Битовая глубина : 8 бит
Тип развёртки : Прогрессивная
Бит/(Пиксели*Кадры) : 0.275
Размер потока : 2,41 Гбайт (69%)
Библиотека кодирования : x264 core 110 r1804 e89c4cf
Настройки программы : cabac=1 / ref=4 / deblock=1:-2:-2 / analyse=0x3:0x113 / me=umh / subme=10 / psy=1 / psy_rd=1.20:0.20 / mixed_ref=1 / me_range=32 / chroma_me=1 / trellis=2 / 8x8dct=1 / cqm=0 / deadzone=21,11 / fast_pskip=0 / chroma_qp_offset=-3 / threads=9 / sliced_threads=0 / nr=0 / decimate=0 / interlaced=0 / constrained_intra=0 / bframes=5 / b_pyramid=2 / b_adapt=2 / b_bias=0 / direct=3 / weightb=1 / open_gop=0 / weightp=2 / keyint=250 / keyint_min=2 / scenecut=40 / intra_refresh=0 / rc_lookahead=72 / rc=2pass / mbtree=1 / bitrate=4794 / ratetol=1.0 / qcomp=0.60 / qpmin=10 / qpmax=51 / qpstep=4 / cplxblur=20.0 / qblur=0.5 / vbv_maxrate=38000 / vbv_bufsize=38000 / ip_ratio=1.40 / aq=1:1.00 / nal_hrd=none
Язык : English

Аудио #1
Идентификатор : 2
Формат : AC-3
Формат/Информация : Audio Coding 3
Расширение режима : CM (complete main)
Идентификатор кодека : A_AC3
Продолжительность : 1 ч. 14 м.
Вид битрейта : Постоянный
Битрейт : 448 Кбит/сек
Канал(ы) : 6 канала(ов)
Расположение каналов : Front: L C R, Side: L R, LFE
Частота : 48,0 КГц
Битовая глубина : 16 бит
Метод сжатия : С потерями
Размер потока : 239 Мбайт (7%)
Заголовок : Voiz AC3 5.1 448 kbps
Язык : Russian

Аудио #2
Идентификатор : 3
Формат : DTS
Формат/Информация : Digital Theater Systems
Идентификатор кодека : A_DTS
Продолжительность : 1 ч. 14 м.
Вид битрейта : Постоянный
Битрейт : 1510 Кбит/сек
Канал(ы) : 6 канала(ов)
Расположение каналов : Front: L C R, Side: L R, LFE
Частота : 48,0 КГц
Битовая глубина : 16 бит
Метод сжатия : С потерями
Размер потока : 804 Мбайт (22%)
Язык : English

Текст #1
Идентификатор : 4
Формат : UTF-8
Идентификатор кодека : S_TEXT/UTF8
Идентификатор кодека/Информация : UTF-8 Plain Text
Язык : Russian

Текст #2
Идентификатор : 5
Формат : UTF-8
Идентификатор кодека : S_TEXT/UTF8
Идентификатор кодека/Информация : UTF-8 Plain Text
Язык : rom
Свернуть
Скриншоты
Изображение
Изображение
Изображение
Изображение
Свернуть


Последний раз редактировалось Qwadro007 2011-03-21 00:32, всего редактировалось 3 раз(а).
Не в сети
Профиль  
 Добавлено: 2011-03-19 14:30 (спустя 11 часов)
Аватара пользователя
Стаж: 6 лет 4 месяца
Возраст: 24
Сообщений: 466
Спасибок: 954
Лайков: 2
Качаем фильм шикарен!!!! И не забываем про спасибо :)
Не в сети
Профиль  
 Добавлено: 2011-03-19 14:52 (спустя 22 минуты)
Стаж: 7 лет 4 месяца
Сообщений: 3
фильм не ломает конечно канонов жанра, но смотрелся на одном дыхании. рекомендую.
Не в сети
Профиль  
 Добавлено: 2011-04-08 09:21 (спустя 19 дней)
Стаж: 5 лет 8 месяцев
Сообщений: 2
фильм ужасен!!!!реально зря время потратил
Не в сети
Профиль  
Начать новую темуОтветить на тему  [ Сообщений: 4 ] 
Вы не можете начинать темы
Вы не можете отвечать на сообщения
Вы не можете редактировать свои сообщения
Вы не можете удалять свои сообщения