Правила форума

Здесь находятся раздачи, на которых не было полного источника (сида) более месяца.
Вы можете вернуть релиз в соответствующий раздел, для этого напишите нам в специальной теме и встаньте на раздачу.
Новые релизы, повторяющие релизы в архиве, повторами не считаются.
Начать новую темуОтветить на тему  [ Сообщений: 12 ] 
Сообщения
 Добавлено: 2013-10-06 06:49
DVD Release Group
Аватара пользователя
Стаж: 7 лет 1 месяц
Сообщений: 3569
Спасибок: 247741
Лайков: 1020
Тихоокеанский рубеж

Pacific Rim


Изображение


Год выпуска: 2013
Страна: США, Legendary Pictures
Жанр: Фантастика, фэнтези, боевик, приключения
Продолжительность: 02:11:16
Перевод: Любительский дубляж
Режиссер: Гильермо дель Торо
В ролях: Чарли Ханнэм, Рон Перлман, Идрис Эльба, Диего Клаттенхофф, Чарли Дэй, Берн Горман, Клифтон Коллинз мл., Ринко Кикучи, Роберт Мэйллет, Макс Мартини
Описание: Когда из морских глубин поднялись легионы чудовищ, известных как Кайдзу, началась война, которой суждено было забрать миллионы жизней и свести «человеческие ресурсы» почти к нулю всего за несколько лет. Чтобы сражаться с пришельцами, было создано специальное оружие: огромные роботы, названные Джегерами, они управлялись одновременно двумя пилотами, чьи сознания соединены с помощью нейронной связи. Но даже Джегеры оказываются почти бессильны перед лицом безжалостных Кайдзу. На грани поражения у защитников человечества нет выбора, кроме как обратиться к двум весьма сомнительным героям — никому не нужному бывшему пилоту и неопытному стажеру — которые объединились, чтобы повести в бой некогда легендарного, но сейчас устаревшего Джегера. Вместе они оказываются единственной надеждой человечества, последним препятствием перед надвигающимся апокалипсисом.
Изображение
Качество: BDRip 1080p
Формат: MKV
Видео кодек: H.264
Аудио кодек: AC3, DTS
Видео: 1920x1080 23.98fps 13550kbps
Аудио:
Audio Rus: AC3 48kHz 6ch 384kbps
Audio Eng: DTS 48kHz 6ch 1510kbps
"MediaInfo"
Формат : Matroska
Версия формата : Version 2
Размер файла : 14,2 Гбайт
Продолжительность : 2 ч. 11 м.
Режим общего битрейта : Переменный
Общий поток : 15,5 Мбит/сек
Дата кодирования : UTC 2013-10-06 01:23:49
Программа кодирования : mkvmerge v5.7.0 ('The Whirlwind') built on Jul 8 2012 20:08:51
Библиотека кодирования : libebml v1.2.3 + libmatroska v1.3.0

Видео
Идентификатор : 1
Формат : AVC
Формат/Информация : Advanced Video Codec
Профиль формата : High@L4.1
Параметр CABAC формата : Да
Параметр ReFrames формата : 4 кадра
Режим смешивания : Header stripping
Идентификатор кодека : V_MPEG4/ISO/AVC
Продолжительность : 2 ч. 11 м.
Битрейт : 13,3 Мбит/сек
Ширина : 1920 пикселей
Высота : 1080 пикселей
Соотношение сторон : 16:9
Частота кадров : 23,976 кадра/сек
Цветовое пространство : YUV
Субдискретизация насыщенности : 4:2:0
Битовая глубина : 8 бит
Тип развёртки : Прогрессивная
Бит/(Пиксели*Кадры) : 0.267
Размер потока : 12,2 Гбайт (85%)
Язык : English
Default : Да
Forced : Нет

Аудио #1
Идентификатор : 2
Формат : AC-3
Формат/Информация : Audio Coding 3
Расширение режима : CM (complete main)
Режим смешивания : Header stripping
Идентификатор кодека : A_AC3
Продолжительность : 2 ч. 11 м.
Вид битрейта : Постоянный
Битрейт : 384 Кбит/сек
Каналы : 6 каналов
Расположение каналов : Front: L C R, Side: L R, LFE
Частота : 48,0 КГц
Битовая глубина : 16 бит
Метод сжатия : С потерями
Размер потока : 361 Мбайт (2%)
Default : Да
Forced : Нет

Аудио #2
Идентификатор : 3
Формат : DTS
Формат/Информация : Digital Theater Systems
Режим смешивания : Header stripping
Идентификатор кодека : A_DTS
Продолжительность : 2 ч. 11 м.
Вид битрейта : Постоянный
Битрейт : 1510 Кбит/сек
Каналы : 6 каналов
Расположение каналов : Front: L C R, Side: L R, LFE
Частота : 48,0 КГц
Битовая глубина : 24 бит
Метод сжатия : С потерями
Размер потока : 1,38 Гбайт (10%)
Язык : English
Default : Нет
Forced : Нет

Аудио #3
Идентификатор : 4
Формат : Vorbis
Параметр Floor формата : 1
Идентификатор кодека : A_VORBIS
Продолжительность : 2 ч. 11 м.
Вид битрейта : Переменный
Битрейт : 64,0 Кбит/сек
Каналы : 2 канала
Частота : 48,0 КГц
Метод сжатия : С потерями
Размер потока : 60,1 Мбайт (0%)
Библиотека кодирования : aoTuV 20110424 (UTC 2011-04-24)
Язык : English
Default : Нет
Forced : Нет

Текст #1
Идентификатор : 5
Формат : UTF-8
Идентификатор кодека : S_TEXT/UTF8
Идентификатор кодека/Информация : UTF-8 Plain Text
Язык : English
Default : Нет
Forced : Нет

Текст #2
Идентификатор : 6
Формат : PGS
Режим смешивания : zlib
Идентификатор кодека : S_HDMV/PGS
Идентификатор кодека/Информация : The same subtitle format used on BDs/HD-DVDs
Язык : English
Default : Нет
Forced : Нет

Текст #3
Идентификатор : 7
Формат : PGS
Режим смешивания : zlib
Идентификатор кодека : S_HDMV/PGS
Идентификатор кодека/Информация : The same subtitle format used on BDs/HD-DVDs
Язык : French
Default : Нет
Forced : Нет

Текст #4
Идентификатор : 8
Формат : PGS
Режим смешивания : zlib
Идентификатор кодека : S_HDMV/PGS
Идентификатор кодека/Информация : The same subtitle format used on BDs/HD-DVDs
Язык : Spanish
Default : Нет
Forced : Нет

Текст #5
Идентификатор : 9
Формат : PGS
Режим смешивания : zlib
Идентификатор кодека : S_HDMV/PGS
Идентификатор кодека/Информация : The same subtitle format used on BDs/HD-DVDs
Язык : Portuguese
Default : Нет
Forced : Нет

Меню
00:00:00.000 : en:00:00:00.000
00:09:09.132 : en:00:09:09.132
00:18:35.823 : en:00:18:35.823
00:23:04.341 : en:00:23:04.341
00:33:00.395 : en:00:33:00.395
00:42:44.896 : en:00:42:44.896
00:50:01.665 : en:00:50:01.665
01:01:09.666 : en:01:01:09.666
01:14:45.106 : en:01:14:45.106
01:22:21.311 : en:01:22:21.311
01:32:09.941 : en:01:32:09.941
01:41:55.609 : en:01:41:55.609
01:51:37.858 : en:01:51:37.858
01:59:21.029 : en:01:59:21.029
02:02:17.830 : en:02:02:17.830
Свернуть

"Скриншоты"
Изображение
Изображение
Изображение
Свернуть

"Раздача"
Изображение
Свернуть


Последний раз редактировалось rastor 2013-10-06 17:54, всего редактировалось 2 раз(а).
Не в сети
Профиль  
 Добавлено: 2013-10-06 07:52 (спустя 1 час 3 минуты)
Аватара пользователя
Стаж: 8 лет 7 месяцев
Сообщений: 165
Лайков: 6
что то не тянет он на БД :)
Не в сети
Профиль  
 Добавлено: 2013-10-06 07:59 (спустя 6 минут)
DVD Release Group
Аватара пользователя
Стаж: 7 лет 1 месяц
Сообщений: 3569
Спасибок: 247741
Лайков: 1020
Cкрытый текст
Изображение
Изображение
Изображение
Изображение
Изображение
Изображение
Изображение
Свернуть
Не в сети
Профиль  
 Добавлено: 2013-10-06 14:17 (спустя 6 часов)
Аватара пользователя
Стаж: 7 лет 8 месяцев
Сообщений: 77
Спасибок: 112
Лайков: 1
как звук?
Не в сети
Профиль  
 Добавлено: 2013-10-06 14:55 (спустя 37 минут)
Аватара пользователя
Стаж: 7 лет 8 месяцев
Возраст: 24
Сообщений: 299
Спасибок: 71
Лайков: 2
а 3д когда будет?
Не в сети
Профиль  
 Добавлено: 2013-10-06 15:22 (спустя 27 минут)
Стаж: 7 лет 1 месяц
Сообщений: 18
перевод многоголосый что ли?во всех раздачах написано что проф дублёр,а на самом деле нет!так что у нас тут:?
Не в сети
Профиль  
 Добавлено: 2013-10-06 16:40 (спустя 1 час 17 минут)
Модератор
Аватара пользователя
Стаж: 8 лет 10 месяцев
Сообщений: 2743
Спасибок: 21519
Лайков: 338
мне кажется это не дубляж совсем!!! это явно какая-то из релиз-групп озвучивает, так как совсем не профессионально для фильма который показывали в кинотеатре!!!... да в некоторых местах явно слышна английская речь!!!
Не в сети
Профиль  
 Добавлено: 2013-10-06 18:44 (спустя 2 часа 3 минуты)
Стаж: 6 лет 4 месяца
Сообщений: 3
Класс Фильм супер
Не в сети
Профиль  
 Добавлено: 2013-10-06 21:12 (спустя 2 часа 28 минут)
Аватара пользователя
Стаж: 8 лет 7 месяцев
Возраст: 28
Сообщений: 205
Лайков: 1
Озвучка отличная!
_________________
Intel Core i7 860 3,36 , Asus Maximus Formula III, 8 Gb DDR3 1600 оперативы, GTX 580.
Не в сети
Профиль  
 Добавлено: 2013-10-06 22:46 (спустя 1 час 34 минуты)
Аватара пользователя
Стаж: 8 лет 8 месяцев
Сообщений: 885
Спасибок: 9815
Сэмпл плиз...
Не в сети
Профиль  
 Добавлено: 2013-10-08 21:51 (спустя 1 день 23 часа)
Аватара пользователя
Стаж: 9 лет 1 месяц
Сообщений: 160
Спасибок: 1268
Лайков: 1
озвучка отличная, вот только качество наложения перевода на звук спецэфектов говно.
Не в сети
Профиль  
 Добавлено: 2013-10-09 21:21 (спустя 23 часа)
Кинокомментатор
Аватара пользователя
Стаж: 9 лет 1 месяц
Сообщений: 1332
Лайков: 54
Кино нормалёк!) Понравилось:) красиво интересно, пусть и предсказуемо) от него многого не требовалось смысловой нагрузки, по сути) кому нравятся фильмы типа Трансформеров и чего то такого) то приятного просмотра! 7/10
_________________
Я ВКонтакте
Не в сети
Профиль  
Начать новую темуОтветить на тему  [ Сообщений: 12 ] 
Вы не можете начинать темы
Вы не можете отвечать на сообщения
Вы не можете редактировать свои сообщения
Вы не можете удалять свои сообщения