Правила форума

Здесь находятся раздачи, на которых не было полного источника (сида) более месяца.
Вы можете вернуть релиз в соответствующий раздел, для этого напишите нам в специальной теме и встаньте на раздачу.
Новые релизы, повторяющие релизы в архиве, повторами не считаются.
Начать новую темуОтветить на тему  [ 1 сообщение ] 
Сообщения
 Добавлено: 2014-02-05 21:47
Модератор
Аватара пользователя
Стаж: 8 лет 1 месяц
Возраст: 20
Сообщений: 32130
Спасибок: 98576
Лайков: 80
Изображение

Тор 2: Царство тьмы / Thor: The Dark World

Год выпуска| 2013
Страна| USA
Жанр| Фэнтези, боевик, приключения
Продолжительность| 01:52:04
Перевод| Профессиональный (дубляж) [Чистый звук]
Режиссёр| Алан Тейлор
Сценарист| Кристофер Йост, Кристофер Маркус, Стивен МакФили
Продюсер| Виктория Алонсо, Луис Д’Эспозито, Кевин Файги
Оператор| Крамер Моргенто
Композитор| Брайан Тайлер
В ролях| Крис Хемсворт, Натали Портман, Том Хиддлстон, Энтони Хопкинс, Джейми Александер, Рэй Стивенсон, Кэт Деннингс, Идрис Эльба, Стеллан Скарсгард, Рене Руссо, Кристофер Экклстон, Стэн Ли
Описание| Продолжение приключений одного из членов команды Мстителей, скандинавского бога Тора, которому на этот раз в одиночку предстоит защитить Землю и все девять миров от нашествия неизвестного врага.
Могучему Тору предстоит вновь сразиться за восстановление порядка в галактике, встретившись лицом к лицу с древней инопланетной расой, ведомой злодеем Малекитом, жаждущим установить в девяти мирах власть тьмы. Столкнувшись с врагом, более могущественным чем сам Один и всё воинство Асгарда, Тор должен собрать силы для решающей битвы. Его ждёт опасное путешествие и долгожданная встреча со своей земной возлюбленной Джейн Фостер. Сможет ли Тор рискнуть самым дорогим, чтобы не дать тьме воцариться на просторах вселенной?
Рейтинг MPAA| Рейтинг PG-13 (Дети до 13 лет допускаются на фильм только с родителями)
Мировая премьера| 30 октября 2013
Премьера в России| 7 ноября 2013
Бюджет| $170 000 000
Кассовые сборы| $633 074 790
Качество| WEB-DLRip 1080p
Формат| MKV
Видео| MPEG-4 AVC, 1920x800, ~12.9 Мбит/сек, 23,976 кадра/сек
Аудио #1| Русский AC3 384 Кбит/сек (2ch), 48,0 КГц, 16 бит [Line]
MediaInfo:
Общее
Уникальный идентификатор                 : 210243172421089311140732839638572103474 (0x9E2B5CB50090788CBFFB792D3E7A7732)
Полное имя                               : ...\Торренты\Thor.The.Dark.World.2013.BDRip.1080p.mkv
Формат                                   : Matroska
Версия формата                           : Version 4 / Version 2
Размер файла                             : 9,97 Гбайт
Продолжительность                        : 1 ч. 52 м.
Режим общего битрейта                    : Переменный
Общий поток                              : 12,7 Мбит/сек
Название фильма                          : Thor.The.Dark.World.2013
Дата кодирования                         : UTC 2014-02-05 14:30:18
Программа кодирования                    : mkvmerge v6.6.0 ('The Edge Of The In Between') built on Dec  1 2013 17:55:00
Библиотека кодирования                   : libebml v1.3.0 + libmatroska v1.4.1

Видео
Идентификатор                            : 1
Формат                                   : AVC
Формат/Информация                        : Advanced Video Codec
Профиль формата                          : High@L4.0
Параметр CABAC формата                   : Да
Параметр ReFrames формата                : 2 кадра
Идентификатор кодека                     : V_MPEG4/ISO/AVC
Продолжительность                        : 1 ч. 52 м.
Вид битрейта                             : Переменный
Битрейт                                  : 12,1 Мбит/сек
Максимальный битрейт                     : 18,5 Мбит/сек
Ширина                                   : 1920 пикселей
Высота                                   : 800 пикселей
Соотношение сторон                       : 2,40:1
Режим частоты кадров                     : Постоянный
Частота кадров                           : 23,976 кадра/сек
Цветовое пространство                    : YUV
Субдискретизация насыщенности            : 4:2:0
Битовая глубина                          : 8 бит
Тип развёртки                            : Прогрессивная
Бит/(Пиксели*Кадры)                      : 0.328
Размер потока                            : 9,47 Гбайт (95%)
Язык                                     : English
Default                                  : Да
Forced                                   : Нет

Аудио
Идентификатор                            : 2
Формат                                   : AC-3
Формат/Информация                        : Audio Coding 3
Расширение режима                        : CM (complete main)
Параметр Endianness формата              : Big
Идентификатор кодека                     : A_AC3
Продолжительность                        : 1 ч. 52 м.
Вид битрейта                             : Постоянный
Битрейт                                  : 384 Кбит/сек
Каналы                                   : 2 канала
Расположение каналов                     : Front: L R
Частота                                  : 48,0 КГц
Битовая глубина                          : 16 бит
Метод сжатия                             : С потерями
Размер потока                            : 308 Мбайт (3%)
Заголовок                                : Русский AC3 [384 Кбит/сек (2ch), 48,0 КГц, 16 бит] (Line)
Язык                                     : Russian
Default                                  : Да
Forced                                   : Да

Меню
00:00:00.000                             : en:Prologue
00:06:15.000                             : en:The Nine Realms At Peace
00:13:07.000                             : en:Strange Happenings In London
00:18:42.000                             : en:The Aether Awakens
00:24:58.000                             : en:Welcome To Asgard
00:29:09.000                             : en:The Last Of The Kursed
00:41:35.000                             : en:Attack On Asgard
00:49:42.000                             : en:We Are Not Immortal
00:55:58.000                             : en:Desperate Times
01:00:10.000                             : en:Escape From Asgard
01:08:14.000                             : en:Brothers In Arms
01:12:41.000                             : en:Return To The Dark World
01:21:36.000                             : en:Follow The Signs
01:26:24.000                             : en:Thor vs. Malekith vs. The Convergence
01:34:00.000                             : en:The Aether Unleashed
01:38:33.000                             : en:Born To Be A King
01:41:50.000                             : en:End Credits
Свернуть
Скриншоты
Изображение

Изображение

Изображение

Изображение
Свернуть
Не в сети
Профиль  
Начать новую темуОтветить на тему  [ 1 сообщение ] 
Вы не можете начинать темы
Вы не можете отвечать на сообщения
Вы не можете редактировать свои сообщения
Вы не можете удалять свои сообщения