Правила форума

Здесь находятся раздачи, на которых не было полного источника (сида) более месяца.
Вы можете вернуть релиз в соответствующий раздел, для этого напишите нам в специальной теме и встаньте на раздачу.
Новые релизы, повторяющие релизы в архиве, повторами не считаются.
Начать новую темуОтветить на тему  [ Сообщений: 12 ] 
Сообщения
 Добавлено: 2011-09-25 11:41
Модератор релиз-группы
Аватара пользователя
Стаж: 9 лет 1 месяц
Возраст: 97
Сообщений: 11659
Спасибок: 6532
Лайков: 269
Трансформеры 3: Тёмная сторона Луны / Transformers: Dark of the Moon


Изображение

Год выхода: 2011
Продолжительность: 02:34:23
Жанр: Фантастика,Боевик,Приключения
Перевод: Дублированный [звук с TS]
Оригинальная звуковая дорожка
Режиссер: Майкл Бэй
В ролях: Шайа ЛаБаф, Джош Дюамель, Джон Туртурро, Тайриз Гибсон, Роузи Хантингтон-Уайтли, Патрик Демпси, Кевин Данн, Джули Уайт, Хьюго Уивинг, Джон Малкович, Кен Жонг

Описание: Для наших героев наступили печальные будни: Сэм потерял Микаэлу, правительство выпускает законодательный акт о выселении Автоботов с Земли, а пока Мегатрон скрывается после позорного поражения Фоллена, десептикон Шокуэйв, правитель Кибертрона, готовится нанести визит нашей планете с совсем недобрыми намерениями. Действие заключительной части трилогии на этот раз охватит не только Землю, но и Луну, темная сторона которой хранит не менее темные тайны.

Изображение
Качество: BDRip
Формат: MKV
Видео: MKV (H.264) ~8475 Kbps, 23.976 fps, 1920x800
Аудио: Russian: MP3, 128 kb/s (2 ch)
Аудио: English: AC3, 640 kb/s (6 ch)

скриншоты
Изображение

Изображение

Изображение

Изображение

Изображение
Свернуть

Mi
Format : Matroska
Format version : Version 2
File size : 9.97 GiB
Duration : 2h 34mn
Overall bit rate : 9 242 Kbps
Movie name : -=R.G.Bee-Media=-
Encoded date : UTC 2011-09-24 18:22:11
Writing application : mkvmerge v4.0.0 ('The Stars were mine') сборка от Jun 6 2010 16:18:42
Writing library : libebml v1.0.0 + libmatroska v1.0.0

Video
ID : 1
Format : AVC
Format/Info : Advanced Video Codec
Format profile : High@L4.1
Format settings, CABAC : Yes
Format settings, ReFrames : 5 frames
Codec ID : V_MPEG4/ISO/AVC
Duration : 2h 34mn
Bit rate : 8 475 Kbps
Width : 1 920 pixels
Height : 800 pixels
Display aspect ratio : 2.40:1
Frame rate : 23.976 fps
Color space : YUV
Chroma subsampling : 4:2:0
Bit depth : 8 bits
Scan type : Progressive
Bits/(Pixel*Frame) : 0.230
Stream size : 8.94 GiB (90%)
Writing library : x264 core 118 r2085 8a62835
Encoding settings : cabac=1 / ref=5 / deblock=1:0:0 / analyse=0x3:0x133 / me=umh / subme=8 / psy=1 / psy_rd=1.00:0.00 / mixed_ref=1 / me_range=16 / chroma_me=1 / trellis=1 / 8x8dct=1 / cqm=0 / deadzone=21,11 / fast_pskip=0 / chroma_qp_offset=-2 / threads=18 / sliced_threads=0 / nr=0 / decimate=1 / interlaced=0 / bluray_compat=0 / constrained_intra=0 / bframes=3 / b_pyramid=2 / b_adapt=1 / b_bias=0 / direct=1 / weightb=1 / open_gop=0 / weightp=2 / keyint=240 / keyint_min=24 / scenecut=40 / intra_refresh=0 / rc_lookahead=40 / rc=2pass / mbtree=1 / bitrate=8475 / ratetol=1.0 / qcomp=0.60 / qpmin=0 / qpmax=69 / qpstep=4 / cplxblur=20.0 / qblur=0.5 / ip_ratio=1.40 / aq=1:1.00
Language : English

Audio #1
ID : 2
Format : MPEG Audio
Format version : Version 1
Format profile : Layer 3
Mode : Joint stereo
Mode extension : MS Stereo
Codec ID : A_MPEG/L3
Codec ID/Hint : MP3
Duration : 2h 34mn
Bit rate mode : Constant
Bit rate : 128 Kbps
Channel(s) : 2 channels
Sampling rate : 44.1 KHz
Compression mode : Lossy
Delay relative to video : 850ms
Stream size : 141 MiB (1%)
Title : Dt
Language : Russian

Audio #2
ID : 3
Format : AC-3
Format/Info : Audio Coding 3
Mode extension : CM (complete main)
Codec ID : A_AC3
Duration : 2h 34mn
Bit rate mode : Constant
Bit rate : 640 Kbps
Channel(s) : 6 channels
Channel positions : Front: L C R, Side: L R, LFE
Sampling rate : 48.0 KHz
Bit depth : 16 bits
Compression mode : Lossy
Stream size : 707 MiB (7%)
Title : english
Language : English

Свернуть
_________________
Изображение
Не в сети
Профиль  
 Добавлено: 2011-09-26 17:51 (спустя 1 день 6 часов)
Стаж: 7 лет
Сообщений: 2
где раздача????
Не в сети
Профиль  
 Добавлено: 2011-09-26 18:13 (спустя 22 минуты)
Модератор релиз-группы
Аватара пользователя
Стаж: 9 лет 1 месяц
Возраст: 97
Сообщений: 11659
Спасибок: 6532
Лайков: 269
ентого мало ? ;;-)))
Изображение
Изображение
Свернуть
меняй прова
_________________
Изображение
Не в сети
Профиль  
 Добавлено: 2011-09-26 22:33 (спустя 4 часа)
Аватара пользователя
Стаж: 5 лет 2 месяца
Возраст: 28
Сообщений: 15
как качество??????????
Не в сети
Профиль  
 Добавлено: 2011-09-26 23:01 (спустя 27 минут)
Аватара пользователя
Стаж: 8 лет
Сообщений: 57
Спасибок: 2
КАК ЗВУК!? я вижу,что как TS,но всеж надеюсь на лучшее или вообще,мож кто знает когда достойный BDrip выйдет!?
Не в сети
Профиль  
 Добавлено: 2011-09-27 01:48 (спустя 2 часа 47 минут)
Аватара пользователя
Стаж: 8 лет 10 месяцев
Сообщений: 548
Спасибок: 153
Звук г....(((
Блюрей вроде только выходит в ноябре.
Не в сети
Профиль  
 Добавлено: 2011-09-27 17:13 (спустя 15 часов)
Top-seeder
Аватара пользователя
Стаж: 8 лет 11 месяцев
Возраст: 29
Сообщений: 469
Спасибок: 45
Слушок прошёл на рутрекере что отгрузки BD с дубляжом скоро начнутся
_________________
Ноут:
Acer Aspire TimelineUltra M5 проц i5 3317U, оперы 6гб, видеокарта GeForce 640m 1гб DDR5, ЖД 128SSD, и 1тб
Свернуть
ДК:
Усилитель Harman/Kardon HK-6500, Плазменная панель 50" LG 50PZ551, Ушки Sennheiser HD 449
Свернуть
Не в сети
Профиль  
 Добавлено: 2011-09-27 20:52 (спустя 3 часа)
Модератор релиз-группы
Аватара пользователя
Стаж: 9 лет 1 месяц
Возраст: 97
Сообщений: 11659
Спасибок: 6532
Лайков: 269

KOCCC:

с дубляжом
да бы уж, надо...
а то с "этим" начал и тут же закончил :hi_hi_hi:
_________________
Изображение
Не в сети
Профиль  
 Добавлено: 2011-09-29 01:54 (спустя 1 день 5 часов)
Аватара пользователя
Стаж: 8 лет 4 месяца
Сообщений: 91
Спасибок: 783
И СТАКИМ КАЧЕСТВОМ ЗВУКА (Аудио: Russian: MP3, 128 kb/s (2 ch)) В Зарубежное кино (HD Video) , МДА....
Не в сети
Профиль  
 Добавлено: 2011-09-29 16:57 (спустя 15 часов)
Top-seeder
Аватара пользователя
Стаж: 8 лет 11 месяцев
Возраст: 29
Сообщений: 469
Спасибок: 45
Можно с оригинальной дарогой смотреть, если английский знаешь)
_________________
Ноут:
Acer Aspire TimelineUltra M5 проц i5 3317U, оперы 6гб, видеокарта GeForce 640m 1гб DDR5, ЖД 128SSD, и 1тб
Свернуть
ДК:
Усилитель Harman/Kardon HK-6500, Плазменная панель 50" LG 50PZ551, Ушки Sennheiser HD 449
Свернуть
Не в сети
Профиль  
 Добавлено: 2011-10-01 09:04 (спустя 1 день 16 часов)
Стаж: 7 лет 5 месяцев
Сообщений: 51
Звук кстати не фонтан. на 3 ну макс на 4, но смотреть можно, видео отличное!
Не в сети
Профиль  
 Добавлено: 2011-10-06 21:47 (спустя 5 дней)
Аватара пользователя
Стаж: 8 лет 3 месяца
Возраст: 43
Сообщений: 3290
Спасибок: 21012
Лайков: 3
viewtopic.php?f=1750&t=428657
_________________
Изображение
Не в сети
Профиль  
Начать новую темуОтветить на тему  [ Сообщений: 12 ] 
Вы не можете начинать темы
Вы не можете отвечать на сообщения
Вы не можете редактировать свои сообщения
Вы не можете удалять свои сообщения