Правила форума

Здесь находятся раздачи, на которых не было полного источника (сида) более месяца.
Вы можете вернуть релиз в соответствующий раздел, для этого напишите нам в специальной теме и встаньте на раздачу.
Новые релизы, повторяющие релизы в архиве, повторами не считаются.
Начать новую темуОтветить на тему  [ Сообщений: 2 ] 
Сообщения
 Добавлено: 2014-09-23 15:48
RG-ELEKTRO
Аватара пользователя
Стаж: 2 года 3 месяца
Сообщений: 7928
Спасибок: 53783
Лайков: 3304
Трансформеры: Эпоха истребления / Transformers: Age of Extinction



Изображение
Год выпуска: 2014
Страна: США, Китай (Paramount Pictures, Hasbro)
Жанр: Фантастика, Боевик, Приключения
Продолжительность: 02:45:07
Перевод: Профессиональный дублированный (Чистый звук)

Режиссер: Майкл Бэй / Michael Bay

В ролях Марк Уолберг, Никола Пельтц, Джек Рейнор, Стэнли Туччи, Келси Грэммер, Титус Уэлливер, ТиДжей Миллер, Ли Бинбин, София Майлс, Питер Каллен



Описание: Автоботы и десептиконы оставили человечество собирать планету по кусочкам. Между тем группа могущественных бизнесменов и гениальных ученых пытается извлечь уроки из ошибок прошлого и улучшить технологии до такой степени, чтобы выйти за пределы контролируемого ранее. В это время другая группа — древних мощных трансформеров — берет Землю под прицел.

Изображение

Качество: BDRip 1080p
Контейнер: MKV
Формат 3D: Half OverUnder / Вертикальная анаморфная стереопара
Порядок ракурсов: левый ракурс первый
Видео кодек: x264
Аудио кодек: AC3
Видео: AVC / 23,976 fps / 1920х1080p / 21.7 Mbps
Аудио:
#1 - Русский / AC3 / 48 KHz / 5.1 ch / 640 Kbps (Дубляж - Line )
#2 - Английский / AC3 / 48 KHz / 5.1 ch / 640 Kbps (Original - BD 3D)

Субтитры:(SRT)
Вшитые (softsub):
#1 - Русские Форсированные (включены по умолчанию)
#2 - English Forced
#3 - English Full
#4 - English SDH

Внешние (UTF-8):
#1 - Русские Форсированные (включены по умолчанию)

"MediaInfo"
General
Unique ID : 221830720203790741986504436508332076376 (0xA6E30AEBEEC2EB07A9D07FAFD5272D58)
Complete name : E:Transformers.AgeOfExtinction(2014)3D-halfOU(Ash61)LineTransformers.AgeOfExtinction(2014)3D-halfOU(Ash61)Line.mkv
Format : Matroska
Format version : Version 2
File size : 27.1 GiB
Duration : 2h 45mn
Overall bit rate : 23.5 Mbps
Movie name : Трансформеры: Эпоха истребления / Transformers: Age of Extinction (2014) 3D
Encoded date : UTC 2014-09-23 02:48:19
Writing application : mkvmerge v5.8.0 ('No Sleep / Pillow') built on Sep 2 2012 15:37:04
Writing library : libebml v1.2.3 + libmatroska v1.3.0

Video
ID : 1
Format : AVC
Format/Info : Advanced Video Codec
Format profile : High@L4.1
Format settings, CABAC : Yes
Format settings, ReFrames : 4 frames
Codec ID : V_MPEG4/ISO/AVC
Duration : 2h 45mn
Bit rate : 21.7 Mbps
Width : 1 920 pixels
Height : 1 080 pixels
Display aspect ratio : 16:9
Frame rate mode : Constant
Frame rate : 23.976 fps
Color space : YUV
Chroma subsampling : 4:2:0
Bit depth : 8 bits
Scan type : Progressive
Bits/(Pixel*Frame) : 0.437
Stream size : 25.1 GiB (93%)
Title : BDRip by Ash61
Writing library : x264 core 138 r2358 9e941d1
Encoding settings : cabac=1 / ref=4 / deblock=1:-3:-3 / analyse=0x3:0x113 / me=umh / subme=10 / psy=1 / psy_rd=1.00:0.15 / mixed_ref=1 / me_range=32 / chroma_me=1 / trellis=2 / 8x8dct=1 / cqm=0 / deadzone=21,11 / fast_pskip=1 / chroma_qp_offset=-3 / threads=12 / lookahead_threads=2 / sliced_threads=0 / nr=0 / decimate=1 / interlaced=0 / bluray_compat=0 / constrained_intra=0 / bframes=8 / b_pyramid=2 / b_adapt=2 / b_bias=0 / direct=3 / weightb=1 / open_gop=0 / weightp=2 / keyint=250 / keyint_min=23 / scenecut=40 / intra_refresh=0 / rc_lookahead=60 / rc=crf / mbtree=1 / crf=17.5 / qcomp=0.70 / qpmin=0 / qpmax=69 / qpstep=4 / vbv_maxrate=40000 / vbv_bufsize=30000 / crf_max=0.0 / nal_hrd=none / frame-packing=4 / ip_ratio=1.40 / aq=1:0.70
Language : English
Default : Yes
Forced : No

Audio #1
ID : 2
Format : AC-3
Format/Info : Audio Coding 3
Mode extension : CM (complete main)
Format settings, Endianness : Big
Codec ID : A_AC3
Duration : 2h 45mn
Bit rate mode : Constant
Bit rate : 640 Kbps
Channel(s) : 6 channels
Channel positions : Front: L C R, Side: L R, LFE
Sampling rate : 48.0 KHz
Bit depth : 16 bits
Compression mode : Lossy
Stream size : 756 MiB (3%)
Title : Дубляж - Line (by WetY)
Language : Russian
Default : Yes
Forced : No

Audio #2
ID : 3
Format : AC-3
Format/Info : Audio Coding 3
Mode extension : CM (complete main)
Format settings, Endianness : Big
Codec ID : A_AC3
Duration : 2h 45mn
Bit rate mode : Constant
Bit rate : 640 Kbps
Channel(s) : 6 channels
Channel positions : Front: L C R, Side: L R, LFE
Sampling rate : 48.0 KHz
Bit depth : 16 bits
Compression mode : Lossy
Stream size : 756 MiB (3%)
Title : Original - BD 3D
Language : English
Default : No
Forced : No

Text #1
ID : 4
Format : UTF-8
Codec ID : S_TEXT/UTF8
Codec ID/Info : UTF-8 Plain Text
Title : Форсированные
Language : Russian
Default : Yes
Forced : No

Text #2
ID : 5
Format : UTF-8
Codec ID : S_TEXT/UTF8
Codec ID/Info : UTF-8 Plain Text
Title : Forced (i)
Language : English
Default : No
Forced : No

Text #3
ID : 6
Format : UTF-8
Codec ID : S_TEXT/UTF8
Codec ID/Info : UTF-8 Plain Text
Title : Full (i)
Language : English
Default : No
Forced : No

Text #4
ID : 7
Format : UTF-8
Codec ID : S_TEXT/UTF8
Codec ID/Info : UTF-8 Plain Text
Title : SDH (i)
Language : English
Default : No
Forced : No

Menu
00:00:00.000 : :1
00:06:51.578 : :2
00:14:33.581 : :3
00:21:37.463 : :4
00:30:13.395 : :5
00:38:45.990 : :6
00:46:08.057 : :7
00:51:39.513 : :8
00:59:09.337 : :9
01:07:48.648 : :10
01:15:14.552 : :11
01:23:25.292 : :12
01:29:14.724 : :13
01:37:16.956 : :14
01:44:35.436 : :15
01:51:25.053 : :16
01:57:47.936 : :17
02:04:48.481 : :18
02:12:35.865 : :19
02:21:04.206 : :20
02:28:48.670 : :21
02:37:09.629 : :22
Свернуть
"Скриншоты"


_________________
Не ищите меня в "ВКонтакте", в "Одноклассниках" меня нет - я на трекерах сижу!
 DirkovDmitriy нравится это.
Не в сети
Профиль  
 Добавлено: 2014-10-04 10:54 (спустя 10 дней)
Аватара пользователя
Стаж: 7 лет 8 месяцев
Возраст: 30
Сообщений: 34
Спасибок: 265
Уважаемый автор,а почему картинка то во весь экран,то с черными полосами.может так надо и я что то на догоняю?
Не в сети
Профиль  
Начать новую темуОтветить на тему  [ Сообщений: 2 ] 
Вы не можете начинать темы
Вы не можете отвечать на сообщения
Вы не можете редактировать свои сообщения
Вы не можете удалять свои сообщения