Правила форума

Здесь находятся раздачи, на которых не было полного источника (сида) более месяца.
Вы можете вернуть релиз в соответствующий раздел, для этого напишите нам в специальной теме и встаньте на раздачу.
Новые релизы, повторяющие релизы в архиве, повторами не считаются.
Начать новую темуОтветить на тему  [ Сообщений: 8 ] 
Сообщения
 Добавлено: 2014-09-19 23:38
DVD Release Group
Аватара пользователя
Стаж: 7 лет 1 месяц
Сообщений: 3542
Спасибок: 246684
Лайков: 1016
Трансформеры: Эпоха истребления

Transformers: Age of Extinction


Изображение


Год выпуска: 2014
Страна: США
Жанр: Фантастика, боевик, приключения
Продолжительность: 02:45:18
Перевод: Профессиональный (полное дублирование) чистый звук
Субтитры: Английские
Режиссер: Майкл Бэй
В ролях: Марк Уолберг, Никола Пельтц, Джек Рейнор, Стэнли Туччи, Келси Грэммер, Титус Уэлливер, ТиДжей Миллер, Ли Бинбин, София Майлс, Питер Каллен
Описание: Автоботы и десептиконы покинули планету, оставив человечество собирать ее по кусочкам. Между тем группа могущественных бизнесменов и гениальных ученых пытается извлечь уроки из ошибок прошлого и улучшить технологии до такой степени, чтобы выйти за пределы контролируемого ранее. В это время другая группа — древних мощных трансформеров — берет Землю под прицел.
Изображение
Качество: BDRip 1080p
Формат: MKV
Видео кодек: H.264
Аудио кодек: AC3
Видео: 1920x800 23.98fps 8835kbps
Аудио:
Audio Rus: 48kHz 2ch 384kbps
Audio Eng: 48kHz 6ch 640kbps
"MediaInfo"
Формат : Matroska
Версия формата : Version 4 / Version 2
Размер файла : 11,4 Гбайт
Продолжительность : 2 ч. 45 м.
Общий поток : 9848 Кбит/сек
Дата кодирования : UTC 2014-09-19 18:05:50
Программа кодирования : mkvmerge v7.0.0 ('Where We Going') 64bit built on Jun 9 2014 15:16:27
Библиотека кодирования : libebml v1.3.0 + libmatroska v1.4.1
DURATION : 02:45:18.272000000
NUMBER_OF_FRAMES : 309946
NUMBER_OF_BYTES : 476077056
_STATISTICS_WRITING_APP : mkvmerge v7.0.0 ('Where We Going') 64bit built on Jun 9 2014 15:16:27
_STATISTICS_WRITING_DATE_UTC : 2014-09-19 18:05:50
_STATISTICS_TAGS : BPS DURATION NUMBER_OF_FRAMES NUMBER_OF_BYTES

Видео
Идентификатор : 1
Формат : AVC
Формат/Информация : Advanced Video Codec
Профиль формата : High@L4.1
Параметр CABAC формата : Да
Параметр ReFrames формата : 5 кадров
Идентификатор кодека : V_MPEG4/ISO/AVC
Продолжительность : 2 ч. 45 м.
Битрейт : 8835 Кбит/сек
Ширина : 1920 пикселей
Высота : 800 пикселей
Соотношение сторон : 2,40:1
Режим частоты кадров : Постоянный
Частота кадров : 23,976 кадра/сек
Цветовое пространство : YUV
Субдискретизация насыщенности : 4:2:0
Битовая глубина : 8 бит
Тип развёртки : Прогрессивная
Бит/(Пиксели*Кадры) : 0.240
Размер потока : 9,96 Гбайт (88%)
Библиотека кодирования : x264 core 142 r2479 dd79a61
Настройки программы : cabac=1 / ref=5 / deblock=1:0:0 / analyse=0x3:0x133 / me=umh / subme=7 / psy=1 / psy_rd=1.00:0.00 / mixed_ref=1 / me_range=16 / chroma_me=1 / trellis=1 / 8x8dct=1 / cqm=0 / deadzone=21,11 / fast_pskip=0 / chroma_qp_offset=-2 / threads=18 / lookahead_threads=3 / sliced_threads=0 / nr=0 / decimate=1 / interlaced=0 / bluray_compat=0 / constrained_intra=0 / bframes=3 / b_pyramid=2 / b_adapt=1 / b_bias=0 / direct=1 / weightb=1 / open_gop=0 / weightp=2 / keyint=250 / keyint_min=23 / scenecut=40 / intra_refresh=0 / rc_lookahead=40 / rc=2pass / mbtree=1 / bitrate=8835 / ratetol=1.0 / qcomp=0.60 / qpmin=0 / qpmax=69 / qpstep=4 / cplxblur=20.0 / qblur=0.5 / ip_ratio=1.40 / aq=1:1.00
Язык : English
Default : Да
Forced : Нет
DURATION : 02:45:07.288000000
NUMBER_OF_FRAMES : 237537
NUMBER_OF_BYTES : 10937509651
_STATISTICS_WRITING_APP : mkvmerge v7.0.0 ('Where We Going') 64bit built on Jun 9 2014 15:16:27
_STATISTICS_WRITING_DATE_UTC : 2014-09-19 18:05:50
_STATISTICS_TAGS : BPS DURATION NUMBER_OF_FRAMES NUMBER_OF_BYTES

Аудио #1
Идентификатор : 2
Формат : AC-3
Формат/Информация : Audio Coding 3
Расширение режима : CM (complete main)
Параметр Endianness формата : Big
Идентификатор кодека : A_AC3
Продолжительность : 2 ч. 45 м.
Вид битрейта : Постоянный
Битрейт : 384 Кбит/сек
Каналы : 2 канала
Расположение каналов : Front: L R
Частота : 48,0 КГц
Битовая глубина : 16 бит
Метод сжатия : С потерями
Размер потока : 454 Мбайт (4%)
Default : Да
Forced : Нет

Аудио #2
Идентификатор : 3
Формат : AC-3
Формат/Информация : Audio Coding 3
Расширение режима : CM (complete main)
Параметр Endianness формата : Big
Идентификатор кодека : A_AC3
Продолжительность : 2 ч. 45 м.
Вид битрейта : Постоянный
Битрейт : 640 Кбит/сек
Каналы : 6 каналов
Расположение каналов : Front: L C R, Side: L R, LFE
Частота : 48,0 КГц
Битовая глубина : 16 бит
Метод сжатия : С потерями
Размер потока : 757 Мбайт (6%)
Язык : English
Default : Нет
Forced : Нет

Текст
Идентификатор : 4
Формат : UTF-8
Идентификатор кодека : S_TEXT/UTF8
Идентификатор кодека/Информация : UTF-8 Plain Text
Заголовок : Forced
Язык : English
Default : Да
Forced : Да

Меню
00:00:00.000 : en:00:00:00.000
00:06:51.578 : en:00:06:51.578
00:14:33.581 : en:00:14:33.581
00:21:37.463 : en:00:21:37.463
00:30:13.395 : en:00:30:13.395
00:38:45.990 : en:00:38:45.990
00:46:08.057 : en:00:46:08.057
00:51:39.513 : en:00:51:39.513
00:59:09.337 : en:00:59:09.337
01:07:48.648 : en:01:07:48.648
01:15:14.552 : en:01:15:14.552
01:23:25.292 : en:01:23:25.292
01:29:14.724 : en:01:29:14.724
01:37:16.956 : en:01:37:16.956
01:44:35.436 : en:01:44:35.436
01:51:25.053 : en:01:51:25.053
01:57:47.936 : en:01:57:47.936
02:04:48.481 : en:02:04:48.481
02:12:35.865 : en:02:12:35.865
02:21:04.206 : en:02:21:04.206
02:28:48.670 : en:02:28:48.670
02:37:09.629 : en:02:37:09.629
Свернуть

"Скриншоты"
Изображение
Изображение
Изображение
Изображение
Изображение
Изображение
Изображение
Изображение
Изображение
Свернуть
Не в сети
Профиль  
 Добавлено: 2014-09-20 17:04 (спустя 17 часов)
Аватара пользователя
Стаж: 4 года 7 месяцев
Сообщений: 24
Спасибок: 3
Когда 3д ждать? Желательно вертикалку))!???
_________________
Будь тем кто ты есть!
Не в сети
Профиль  
 Добавлено: 2014-09-20 18:37 (спустя 1 час 33 минуты)
DVD Release Group
Аватара пользователя
Стаж: 7 лет 1 месяц
Сообщений: 3542
Спасибок: 246684
Лайков: 1016
Vladislava
Уже есть.
Не в сети
Профиль  
 Добавлено: 2014-09-20 20:11 (спустя 1 час 34 минуты)
Аватара пользователя
Стаж: 7 лет 7 месяцев
Сообщений: 77
Спасибок: 112
Лайков: 1

rastor:

Vladislava
Уже есть.

Где?
Не в сети
Профиль  
 Добавлено: 2014-09-20 20:38 (спустя 27 минут)
Аватара пользователя
Стаж: 4 года 7 месяцев
Сообщений: 24
Спасибок: 3
чет пока не не наблюдаю вертикалки :ne_znayu: ,ссылку в студию )))или в личку)))
_________________
Будь тем кто ты есть!
Не в сети
Профиль  
 Добавлено: 2014-09-21 02:38 (спустя 5 часов)
DVD Release Group
Аватара пользователя
Стаж: 7 лет 1 месяц
Сообщений: 3542
Спасибок: 246684
Лайков: 1016
Пока только такое:
Трансформеры: Эпоха истребления 3D
 Vladislava нравится это.
Не в сети
Профиль  
 Добавлено: 2014-09-23 11:08 (спустя 2 дня 8 часов)
Русские витязи
Аватара пользователя
Стаж: 6 лет 10 месяцев
Возраст: 30
Сообщений: 485
Лайков: 4
Ну и фигня,а не фильм
Не в сети
Профиль  
 Добавлено: 2014-09-26 11:43 (спустя 3 дня)
Стаж: 7 лет 6 месяцев
Сообщений: 4
А когда будет не "чистый звук" а нормальный для хорошей пятиканальной аппаратуры?????????
Не в сети
Профиль  
Начать новую темуОтветить на тему  [ Сообщений: 8 ] 
Вы не можете начинать темы
Вы не можете отвечать на сообщения
Вы не можете редактировать свои сообщения
Вы не можете удалять свои сообщения