Правила форума

Здесь находятся раздачи, на которых не было полного источника (сида) более месяца.
Вы можете вернуть релиз в соответствующий раздел, для этого напишите нам в специальной теме и встаньте на раздачу.
Новые релизы, повторяющие релизы в архиве, повторами не считаются.
Начать новую темуОтветить на тему  [ Сообщений: 7 ] 
Сообщения
 Добавлено: 2012-11-08 05:59
DVD Release Group
Аватара пользователя
Стаж: 7 лет 1 месяц
Сообщений: 3542
Спасибок: 246650
Лайков: 1016
Третий лишний

Ted

«В любви не без медведя»


Изображение


Год выпуска: 2012
Страна: США / Universal Pictures, Media Rights Capital, Fuzzy Door Productions
Жанр: Фэнтези, комедия
Продолжительность: 01:46:03
Перевод: Профессиональный (полное дублирование)
Субтитры: Нет
Режиссер: Сет МакФарлейн
В ролях: Марк Уолберг, Мила Кунис, Сет МакФарлейн, Джоэль МакХэйл, Джованни Рибизи, Патрик Варбертон, Мэтт Уолш, Джессика Барт, Аэдин Минкс, Билл Смитрович
Описание: Джон влюблен в красавицу Лори, у него отличная работа и большие планы на будущее. Но в их отношения вмешивается третий, давний друг Джона — Тед. Он отрывается сутки напролет, предпочитает случайные связи и не желает терять друга. Но никто на самом деле не знает на что он способен, ведь Тед — большой плюшевый медведь.
Кинопоиск: 7.3 (26184)
IMDb: 7.6 (91001)
Дополнительно: Сохранены оригинальные чаптеры как на Blu-Ray.
Качество: BDRip 720p
Формат: MKV
Видео кодек: H.264
Аудио кодек: DTS
Видео: 1280x688 23.98fps 5130kbps
Аудио:
Audio Rus: 48kHz 6ch 755Kbps
Audio Eng: 48kHz 6ch 1510Kbps
"MediaInfo"
Формат : Matroska
Версия формата : Version 2
Размер файла : 5,49 Гбайт
Продолжительность : 1 ч. 46 м.
Общий поток : 7408 Кбит/сек
Дата кодирования : UTC 2012-11-08 00:02:19
Программа кодирования : mkvmerge v4.9.1 ('Ich will') built on Jul 11 2011 23:53:15
Библиотека кодирования : libebml v1.2.1 + libmatroska v1.1.1

Видео
Идентификатор : 1
Формат : AVC
Формат/Информация : Advanced Video Codec
Профиль формата : High@L4.1
Параметр CABAC формата : Да
Параметр ReFrames формата : 5 кадров
Идентификатор кодека : V_MPEG4/ISO/AVC
Продолжительность : 1 ч. 46 м.
Битрейт : 5130 Кбит/сек
Ширина : 1280 пикселей
Высота : 688 пикселей
Соотношение сторон : 1,860
Частота кадров : 23,976 кадра/сек
Цветовое пространство : YUV
Субдискретизация насыщенности : 4:2:0
Битовая глубина : 8 бит
Тип развёртки : Прогрессивная
Бит/(Пиксели*Кадры) : 0.243
Размер потока : 3,70 Гбайт (67%)
Заголовок : Ted (2012)
Библиотека кодирования : x264 core 128 r2216 198a7ea
Настройки программы : cabac=1 / ref=5 / deblock=1:0:0 / analyse=0x3:0x133 / me=umh / subme=7 / psy=1 / psy_rd=1.00:0.00 / mixed_ref=1 / me_range=16 / chroma_me=1 / trellis=1 / 8x8dct=1 / cqm=0 / deadzone=21,11 / fast_pskip=1 / chroma_qp_offset=-2 / threads=18 / lookahead_threads=3 / sliced_threads=0 / nr=0 / decimate=1 / interlaced=0 / bluray_compat=0 / constrained_intra=0 / bframes=3 / b_pyramid=2 / b_adapt=2 / b_bias=0 / direct=3 / weightb=1 / open_gop=0 / weightp=2 / keyint=250 / keyint_min=23 / scenecut=40 / intra_refresh=0 / rc_lookahead=40 / rc=2pass / mbtree=1 / bitrate=5130 / ratetol=1.0 / qcomp=0.60 / qpmin=0 / qpmax=69 / qpstep=4 / cplxblur=20.0 / qblur=0.5 / ip_ratio=1.40 / aq=1:1.00
Язык : English
Default : Да
Forced : Да

Аудио #1
Идентификатор : 2
Формат : DTS
Формат/Информация : Digital Theater Systems
Идентификатор кодека : A_DTS
Продолжительность : 1 ч. 46 м.
Вид битрейта : Постоянный
Битрейт : 755 Кбит/сек
Каналы : 6 каналов
Расположение каналов : Front: L C R, Side: L R, LFE
Частота : 48,0 КГц
Битовая глубина : 24 бит
Метод сжатия : С потерями
Размер потока : 572 Мбайт (10%)
Заголовок : DTS 5.1 @ 755 kbps - Dub, BD CEE
Язык : Russian
Default : Да
Forced : Да

Аудио #2
Идентификатор : 3
Формат : DTS
Формат/Информация : Digital Theater Systems
Идентификатор кодека : A_DTS
Продолжительность : 1 ч. 46 м.
Вид битрейта : Постоянный
Битрейт : 1510 Кбит/сек
Каналы : 6 каналов
Расположение каналов : Front: L C R, Side: L R, LFE
Частота : 48,0 КГц
Битовая глубина : 24 бит
Метод сжатия : С потерями
Размер потока : 1,12 Гбайт (20%)
Заголовок : DTS 5.1 @ 1536 kbps
Язык : English
Default : Нет
Forced : Нет

Меню
00:00:00.000 : en:Chapter 01
00:04:05.912 : en:Chapter 02
00:10:11.819 : en:Chapter 03
00:15:25.132 : en:Chapter 04
00:19:31.545 : en:Chapter 05
00:25:47.879 : en:Chapter 06
00:30:48.972 : en:Chapter 07
00:34:31.194 : en:Chapter 08
00:41:05.045 : en:Chapter 09
00:47:41.692 : en:Chapter 10
00:52:33.942 : en:Chapter 11
00:58:44.395 : en:Chapter 12
01:03:42.360 : en:Chapter 13
01:08:20.638 : en:Chapter 14
01:13:04.421 : en:Chapter 15
01:17:35.025 : en:Chapter 16
01:24:12.630 : en:Chapter 17
01:31:35.490 : en:Chapter 18
01:35:17.670 : en:Chapter 19
01:40:34.737 : en:Chapter 20
Свернуть

"Скриншоты"
Изображение
Изображение
Изображение
Изображение
Изображение
Изображение
Свернуть

Раздача группы:
Изображение
Не в сети
Профиль  
 Добавлено: 2012-11-08 06:54 (спустя 54 минуты)
Руководитель релиз-группы
Аватара пользователя
Стаж: 7 лет 4 месяца
Возраст: 31
Сообщений: 3407
Спасибок: 46728
Лайков: 5
ref=5 / subme=7 / bframes=3
сцена... :(
ждем лучшего качества
Не в сети
Профиль  
 Добавлено: 2012-11-08 10:42 (спустя 3 часа)
Аватара пользователя
Стаж: 6 лет 5 месяцев
Сообщений: 138
Спасибок: 1118
Лайков: 1
Еле досмотрел!
_________________
Изображение
Не в сети
Профиль  
 Добавлено: 2012-11-08 21:28 (спустя 10 часов)
Стаж: 5 лет 3 месяца
Сообщений: 150
Лайков: 1
Мне понравился)
Не в сети
Профиль  
 Добавлено: 2012-11-08 22:13 (спустя 45 минут)
Аватара пользователя
Стаж: 8 лет 10 месяцев
Возраст: 27
Сообщений: 98
Лайков: 1
местами перевода нету. еле еле слышно!((( минус раздаче.
Не в сети
Профиль  
 Добавлено: 2012-11-08 22:50 (спустя 36 минут)
Модератор
Аватара пользователя
Стаж: 6 лет 10 месяцев
Возраст: 33
Сообщений: 5908
Спасибок: 61239
Лайков: 3540

xxzabelinxx:

местами перевода нету. еле еле слышно!((( минус раздаче.
это сцен рип, есть нормальный звук на трекере в 720р.
_________________
ИзображениеИзображение Изображение
Изображение
Не в сети
Профиль  
 Добавлено: 2012-11-09 08:20 (спустя 9 часов)
Руководитель релиз-группы
Аватара пользователя
Стаж: 7 лет 4 месяца
Возраст: 31
Сообщений: 3407
Спасибок: 46728
Лайков: 5
viewtopic.php?f=1750&t=487625
Не в сети
Профиль  
Начать новую темуОтветить на тему  [ Сообщений: 7 ] 
Вы не можете начинать темы
Вы не можете отвечать на сообщения
Вы не можете редактировать свои сообщения
Вы не можете удалять свои сообщения