Правила форума

Здесь находятся раздачи, на которых не было полного источника (сида) более месяца.
Вы можете вернуть релиз в соответствующий раздел, для этого напишите нам в специальной теме и встаньте на раздачу.
Новые релизы, повторяющие релизы в архиве, повторами не считаются.
Начать новую темуОтветить на тему  [ Сообщений: 3 ] 
Сообщения
 Добавлено: 2011-03-16 10:27
Top-releaser
Аватара пользователя
Стаж: 6 лет 11 месяцев
Возраст: 45
Сообщений: 299
Спасибок: 4106
Лайков: 3
Три дня на побег / The Next Three Days
«Все ради неё»

Изображение

Год выпуска: 2010
Страна: США, Франция
Жанр: триллер, драма, мелодрама, криминал
Продолжительность: 02:13:08
Перевод: Профессиональный (полное дублирование)[Лицензия]

Режиссер: Пол Хаггис / Paul Haggis
Сценарий: Пол Хаггис / Paul Haggis, Фред Кавайе / Fred Cavaye, Гийом Леман / Guillaume Lemans
Продюсер: Оливье Делбоск / Olivier Delbosc, Пол Хаггис / Paul Haggis, Марк Миссонье / Marc Missonnier, Майкл Нозик / Michael Nozik, Эжени Грандваль / Eugenie Grandval
Оператор: Стефан Фонтен / Stephane Fontaine
Композитор: Дэнни Элфман / Danny Elfman, Альберто Иглесиас / Alberto Iglesias

В ролях: Рассел Кроу (John Brennan), Элизабет Бэнкс (Lara Brennan), Майкл Бьюи (Mick Brennan), Моран Атиас (Erit), Реми Нозик (Jenna), Тоби Грин (Three Year Old Luke), Тайлер Грин (Three Year Old Luke), Джейсон Бех (Detective Quinn), Аиша Хиндс (Detective Collero), Ти Кигэн Симпкинс (Luke), Вероника Браун (Female Guard #1), Оливия Уайлд (Nicole)
Описание: Жизнь Джона казалась идеальной, пока его красавицу жену не арестовали по подозрению в убийстве. Пока Лара сидит в тюрьме, Джон один воспитывает сына и пытается всеми способами доказать ее невиновность.
Но, когда законные способы освободить любимую исчерпаны, единственное, что ему остается - разработать изощренный план побега. Джон готов рискнуть всем ради нее... Но что если она действительно виновна?

Изображение
Бюджет: $30 000 000
Сборы в США: $21 148 651
Сборы в России: $3 087 364
Сборы в мире: $58 148 651
Мировая премьера: 9 ноября 2010
Релиз на DVD: 15 марта 2011, «West Video»
Релиз на Blu-ray: 15 марта 2011, «West Video»
Изображение

MPAA: Изображение - Детям до 13 лет просмотр не желателен
Качество: BDRip, 720p
Формат: Matroska
Видео: AVC; 1280x544 (2.35:1); 7301 Kbps; 23,976 fps; 0,437 bpp
Аудио №1: Russian; DTS; 48 KHz; 754 Kbps; CBR; 6 ch; 24 bit; [Профессиональный (полное дублирование)]
Аудио №2: Engish; DTS; 48 KHz; 1509 Kbps; CBR; 6 ch; 24 bit; [Original]
Субтитры №1: Russian (R5)
Субтитры №2: Russian (Voronine)
Субтитры №3: English

Релиз группы: Изображение (Из релиза выкинут украинский язык, португальские и испанские титры)
Раздача группы:Изображение

"MediaInfo"

Общее
Уникальный идентификатор : 217822385783994400747839783271102505533 (0xA3DF10C6D4D665508AFA06BFCF2D623D)
Полное имя : Tri.dnja.na.pobeg.2010.BDRip.720p.RU.[R.G.Daredevil].mkv
Формат : Matroska
Размер файла : 9,08 Гбайт
Продолжительность : 2 ч. 13 м.
Общий поток : 9760 Кбит/сек
Название фильма : The Next Three Days (2010) - Release for NNTT
Дата кодирования : UTC 2011-03-16 06:10:06
Программа кодирования : mkvmerge v4.4.0 ('Die Wiederkehr') сборка от Oct 31 2010 21:52:48
Библиотека кодирования : libebml v1.0.0 + libmatroska v1.0.0

Видео
Идентификатор : 1
Формат : AVC
Формат/Информация : Advanced Video Codec
Профиль формата : High@L4.1
Параметр CABAC формата : Да
Параметр ReFrames формата : 12 кадры
Режим смешивания : Header stripping
Идентификатор кодека : V_MPEG4/ISO/AVC
Продолжительность : 2 ч. 13 м.
Битрейт : 7500 Кбит/сек
Ширина : 1280 пикс.
Высота : 544 пикс.
Соотношение сторон : 2,35:1
Частота кадров : 23,976 кадр/сек
Цветовое пространство : YUV
Подвыборка цветности : 4:2:0
Битовая глубина : 8 бит
Тип развёртки : Прогрессивная
Бит/(Пиксели*Кадры) : 0.449
Размер потока : 6,79 Гбайт (75%)
Заголовок : Release for HDCLUB
Библиотека кодирования : x264 core 112 r1867 22bfd31
Настройки программы : cabac=1 / ref=12 / deblock=1:-3:-3 / analyse=0x3:0x113 / me=tesa / subme=10 / psy=1 / psy_rd=1.00:0.00 / mixed_ref=1 / me_range=16 / chroma_me=1 / trellis=2 / 8x8dct=1 / cqm=0 / deadzone=21,11 / fast_pskip=0 / chroma_qp_offset=-2 / threads=12 / sliced_threads=0 / nr=0 / decimate=0 / interlaced=0 / constrained_intra=0 / bframes=7 / b_pyramid=2 / b_adapt=2 / b_bias=0 / direct=3 / weightb=1 / open_gop=0 / weightp=2 / keyint=250 / keyint_min=23 / scenecut=40 / intra_refresh=0 / rc=2pass / mbtree=0 / bitrate=7500 / ratetol=1.0 / qcomp=0.70 / qpmin=0 / qpmax=51 / qpstep=4 / cplxblur=20.0 / qblur=0.5 / ip_ratio=1.40 / pb_ratio=1.30 / aq=1:0.95
Язык : English

Аудио #1
Идентификатор : 2
Формат : DTS
Формат/Информация : Digital Theater Systems
Режим смешивания : Header stripping
Идентификатор кодека : A_DTS
Продолжительность : 2 ч. 13 м.
Вид битрейта : Постоянный
Битрейт : 755 Кбит/сек
Канал(ы) : 6 канала(ов)
Расположение каналов : Front: L C R, Side: L R, LFE
Частота : 48,0 КГц
Битовая глубина : 24 бит
Метод сжатия : С потерями
Размер потока : 719 Мбайт (8%)
Заголовок : DTS 5.1 @ 768 kbps - Дублированный
Язык : Russian

Аудио #2
Идентификатор : 3
Формат : DTS
Формат/Информация : Digital Theater Systems
Режим смешивания : Header stripping
Идентификатор кодека : A_DTS
Продолжительность : 2 ч. 13 м.
Вид битрейта : Постоянный
Битрейт : 1510 Кбит/сек
Канал(ы) : 6 канала(ов)
Расположение каналов : Front: L C R, Side: L R, LFE
Частота : 48,0 КГц
Битовая глубина : 24 бит
Метод сжатия : С потерями
Размер потока : 1,40 Гбайт (15%)
Заголовок : DTS 5.1 @ 1536 kbps
Язык : English

Текст #1
Идентификатор : 4
Формат : UTF-8
Идентификатор кодека : S_TEXT/UTF8
Идентификатор кодека/Информация : UTF-8 Plain Text
Заголовок : R5
Язык : Russian

Текст #2
Идентификатор : 5
Формат : UTF-8
Идентификатор кодека : S_TEXT/UTF8
Идентификатор кодека/Информация : UTF-8 Plain Text
Заголовок : Voronine
Язык : Russian

Текст #3
Идентификатор : 6
Формат : UTF-8
Идентификатор кодека : S_TEXT/UTF8
Идентификатор кодека/Информация : UTF-8 Plain Text
Заголовок : SDH
Язык : English

Меню
00:00:00.000 : en:00:00:00.000
00:13:34.439 : en:00:13:34.439
00:24:08.572 : en:00:24:08.572
00:34:31.361 : en:00:34:31.361
00:39:52.348 : en:00:39:52.348
00:44:26.581 : en:00:44:26.581
00:53:59.862 : en:00:53:59.862
00:57:53.804 : en:00:57:53.804
01:03:46.948 : en:01:03:46.948
01:07:22.372 : en:01:07:22.372
01:19:12.164 : en:01:19:12.164
01:28:39.523 : en:01:28:39.523
01:34:29.747 : en:01:34:29.747
01:45:59.895 : en:01:45:59.895
01:51:51.663 : en:01:51:51.663
01:58:58.256 : en:01:58:58.256
Свернуть
Изображение
"Скриншоты"

Изображение
Изображение
Изображение
Изображение
Изображение
Изображение
Свернуть
Не в сети
Профиль  
 Добавлено: 2012-03-25 08:14 (спустя 1 год)
Top-releaser
Аватара пользователя
Стаж: 6 лет 7 месяцев
Сообщений: 2078
Спасибок: 3230
Лайков: 9
раздайте :)
Не в сети
Профиль  
 Добавлено: 2012-03-27 20:53 (спустя 2 дня 12 часов)
Стаж: 4 года 9 месяцев
Сообщений: 15
Фильм ССССупперррррррр Смотреть 100% ))))))))))))Спасибо :) :) :) :) :) :) :) :) :) :) :) :) :) :) :) :) :) :) :) :) :) :) :) :) :) :) :) :) :)-(: :co_ol: :co_ol: :co_ol: :co_ol: :co_ol: :co_ol: :co_ol: :co_ol: :co_ol: :co_ol: :co_ol: :co_ol: :co_ol: :co_ol: :co_ol: :co_ol: :co_ol:
Не в сети
Профиль  
Начать новую темуОтветить на тему  [ Сообщений: 3 ] 
Вы не можете начинать темы
Вы не можете отвечать на сообщения
Вы не можете редактировать свои сообщения
Вы не можете удалять свои сообщения