Правила форума

Здесь находятся раздачи, на которых не было полного источника (сида) более месяца.
Вы можете вернуть релиз в соответствующий раздел, для этого напишите нам в специальной теме и встаньте на раздачу.
Новые релизы, повторяющие релизы в архиве, повторами не считаются.
Начать новую темуОтветить на тему  [ Сообщений: 2 ] 
Сообщения
 Добавлено: 2011-03-11 09:47
Top-releaser
Аватара пользователя
Стаж: 7 лет 3 месяца
Возраст: 25
Сообщений: 1036
Спасибок: 2694
Лайков: 9
Трон: Наследие / TRON: Legacy

Изображение



Год выхода: 2010
Страна: CША
Cлоган: «Другая игра, другие правила.»

Жанр: фантастика, боевик, триллер, приключения
Продолжительность: 02:05:08
Перевод: Дублированное

Режиссер: Джозеф Косински
Сценарий: Эдвард Китсис, Адам Хоровиц, Брайан Клагман
Продюсер: Шон Бэйли, Стивен Лисбергер, Джеффри Сильвер
Оператор: Клаудио Миранда
Композитор: Daft Punk

В ролях: Джефф Бриджес, Гаррет Хедлунд, Оливия Уайлд, Брюс Бокслейтнер, Джеймс Фрейн, Бо Гарретт, Майкл Шин, Серинда Свон, Йайа ДаКоста, Элизабет Мэтис

Описание: Сэм Флинн, технически одарённый 27-летний сын Кевина Флинна, начинает расследовать исчезновение своего отца и оказывается втянутым в тот же мир жестоких программ и гладиаторских игр, в котором его отец жил на протяжении 20 лет. Вместе с помощницей Кевина отец и сын пускаются в рискованное путешествие за жизнью по поражающей взгляд кибер-вселенной, которая стала ещё более совершенной и чрезвычайно опасной.

KinoPoisk.ru: 7.156
IMDb.com: 7.2/10

pаздача группы:Изображение

Качество: BD-Remux
Формат: MKV

Видео: MPEG4 Video (H264) 1920x1080 23.98fps
Аудио 1: Russian Dolby AC3 48000Hz 6ch
Аудио 2: English DTS, 1510 kb/s (6 ch)
Subtitle: Russian/English UTF-8

Изображение

MediaInfo
General
Unique ID : 198734433460959373634147253103793339801 (0x9582DC1141EF4B60A86862061B74FD99)
Complete name : G:\ReLease\TRON.Nasledie.BDRemux-btv..mkv
Format : Matroska
File size : 22.8 GiB
Duration : 2h 5mn
Overall bit rate : 26.1 Mbps
Encoded date : UTC 2011-03-10 12:01:01
Writing application : mkvmerge v3.4.0 ('Rapunzel') сборка от May 15 2010 09:38:20
Writing library : libebml v0.8.0 + libmatroska v0.9.0

Video
ID : 1
Format : AVC
Format/Info : Advanced Video Codec
Format profile : High@L4.1
Format settings, CABAC : Yes
Format settings, ReFrames : 4 frames
Format settings, GOP : M=1, N=24
Codec ID : V_MPEG4/ISO/AVC
Duration : 2h 5mn
Bit rate mode : Variable
Bit rate : 23.4 Mbps
Maximum bit rate : 35.8 Mbps
Width : 1 920 pixels
Height : 1 080 pixels
Display aspect ratio : 16:9
Frame rate : 23.976 fps
Color space : YUV
Chroma subsampling : 4:2:0
Bit depth : 8 bits
Scan type : Progressive
Bits/(Pixel*Frame) : 0.471
Stream size : 20.5 GiB (90%)
Color primaries : BT.709-5, BT.1361, IEC 61966-2-4, SMPTE RP177
Transfer characteristics : BT.709-5, BT.1361
Matrix coefficients : BT.709-5, BT.1361, IEC 61966-2-4 709, SMPTE RP177

Audio #1
ID : 2
Format : AC-3
Format/Info : Audio Coding 3
Mode extension : CM (complete main)
Codec ID : A_AC3
Duration : 2h 5mn
Bit rate mode : Constant
Bit rate : 640 Kbps
Channel(s) : 6 channels
Channel positions : Front: L C R, Side: L R, LFE
Sampling rate : 48.0 KHz
Bit depth : 16 bits
Compression mode : Lossy
Stream size : 573 MiB (2%)
Language : Russian

Audio #2
ID : 3
Format : DTS
Format/Info : Digital Theater Systems
Codec ID : A_DTS
Duration : 2h 5mn
Bit rate mode : Constant
Bit rate : 1 510 Kbps
Channel(s) : 6 channels
Channel positions : Front: L C R, Side: L R, LFE
Sampling rate : 48.0 KHz
Bit depth : 24 bits
Compression mode : Lossy
Stream size : 1.32 GiB (6%)
Language : English

Text #1
ID : 4
Format : UTF-8
Codec ID : S_TEXT/UTF8
Codec ID/Info : UTF-8 Plain Text
Title : Forced
Language : Russian

Text #2
ID : 5
Format : UTF-8
Codec ID : S_TEXT/UTF8
Codec ID/Info : UTF-8 Plain Text
Title : Full
Language : Russian

Text #3
ID : 6
Format : UTF-8
Codec ID : S_TEXT/UTF8
Codec ID/Info : UTF-8 Plain Text
Language : English


Свернуть
Скриншоты
Изображение
Изображение
Изображение
Изображение
Изображение

Свернуть





release by FoTP
Не в сети
Профиль  
 Добавлено: 2011-04-21 20:27 (спустя 1 месяц 10 дней)
Аватара пользователя
Стаж: 7 лет 3 месяца
Возраст: 21
Сообщений: 4
я так хотел HD фильм посмотреть а сидов не видно
Не в сети
Профиль  
Начать новую темуОтветить на тему  [ Сообщений: 2 ] 
Вы не можете начинать темы
Вы не можете отвечать на сообщения
Вы не можете редактировать свои сообщения
Вы не можете удалять свои сообщения