Правила форума

Здесь находятся раздачи, на которых не было полного источника (сида) более месяца.
Вы можете вернуть релиз в соответствующий раздел, для этого напишите нам в специальной теме и встаньте на раздачу.
Новые релизы, повторяющие релизы в архиве, повторами не считаются.
Начать новую темуОтветить на тему  [ Сообщений: 2 ] 
Сообщения
 Добавлено: 2011-08-06 19:31
Инквизитор
Аватара пользователя
Стаж: 8 лет 8 месяцев
Сообщений: 3753
Спасибок: 28359
Лайков: 9
Изображение

Твин Пикс: Сквозь огонь / Twin Peaks: Fire Walk with Me

«These are the last seven days of Laura Palmer»


Год выпуска: 1992
Страна: США, Франция
Жанр: триллер, драма, криминал, детектив
Продолжительность: 02:14:46
Перевод: Многоголосый закадровый, FDV; Многоголосый закадровый, LDV; Многоголосый закадровый, Twister; Многоголосый закадровый, ОРТ; Одноголосый закадровый, А.Гаврилов; Одноголосый закадровый, С.Визгунов
Режиссер: Дэвид Линч
Сценарий: Марк Фрост, Дэвид Линч, Роберт Энджелс
Продюсер: Френсис Буиг, Грегг Финберг, Марк Фрост
Оператор: Рональд Виктор Гарсия
В ролях: Шерил Ли, Рэй Уайз, Медкен Эмик, Дэна Эшбрук, Фиби Августин, Дэвид Боуи, Эрик ДаРе, Мигель Феррер, Памела Гидли, Хэзер Грэм, Крис Айзек, Мойра Келли, Пегги Липтон, Дэвид Линч, Джеймс Маршалл, Юрген Прохнов, Гарри Дин Стэнтон, Кифер Сазерленд, Ленни фон Долен, Грейс Забриски, Кайл МакЛоклен, Фрэнсис Бэй, Катрин Э. Колсон, Майкл Дж. Андерсон, Фрэнк Силва, Уолтер Олкевич, Аль Штробель, Гаррисон Хершбергер, Виктор Риверс, Рик Айелло, Гари Баллок, Кэлвин Локхарт, Дэвид Брисбин, Джули Круз, Джеймс Паркс, Джоан Чэнь, Жан Д’Арси, Дон С. Дэвис, Мэри Джо Дешанель, Уоррен Фрост, Гарри Гоаз, Майкл Хорс, Дэвид Патрик Келли, Эверет МакГилл, Джек Нэнс, Майкл Онткин, Кимми Робертсон, Уэнди Роби, Шарлотта Стюарт, Расс Тэмблин, Энн Гэйбис
Описание: Добро пожаловать в Твин Пикс! Тихий городок в живописной долине с населением 51201 человек, где можно попробовать чертовски вкусный кофе и домашний вишневый пирог. Твин Пикс выглядит процветающим местом, где живут добропорядочные граждане, преданные семейным устоям. С первого взгляда их жизнь похожа на идиллическую. Но только с первого взгляда.

Здесь всё совсем не то, чем кажется, и каждому есть что скрывать. Загадочная смерть и расследование, больше похожее на разгадку необычной шарады. Таинственный дневник, мистически исчезнувшие свидетели, странная красная комната, кошмарные галлюцинации, зловещие предзнаменования и юная школьница Лора Палмер, сжигающая свою жизнь…

Изображение
Сборы в США: $4 160 851
Изображение
Релиз, раздача группы: Изображение, Изображение
Качество: BDRip, 1080p
Формат: MKV
Видео: 1916x1032 at 24.000 fps (True24p), x264@L4.1, 2pass, ~15 Mbps avg
Аудио №1: Russian: 48 kHz, DTS, 3/2 (L,C,R,l,r) + LFE ch, ~1536.00 kbps avg |Многоголосый закадровый, FDV|
Аудио №2: Russian: 48 kHz, AC3, 3/2 (L,C,R,l,r) + LFE ch, ~384.00 kbps avg |Многоголосый закадровый, LDV|
Аудио №3: Russian: 48 kHz, AC3, 3/0 (L,C,R) + LFE ch, ~448.00 kbps avg |Многоголосый закадровый, Twister|
Аудио №4: Russian: 48 kHz, AC3, 2/0 (L,R) ch, ~192.00 kbps avg |Многоголосый закадровый, ОРТ|
Аудио №5: Russian: 48 kHz, DTS, 3/2 (L,C,R,l,r) + LFE ch, ~1536.00 kbps avg |Одноголосый закадровый, А.Гаврилов|
Аудио №6: Russian: 48 kHz, DTS, 3/2 (L,C,R,l,r) + LFE ch, ~1536.00 kbps avg |Одноголосый закадровый, С.Визгунов|
Аудио №7: English: 48 kHz, DTS, 3/2 (L,C,R,l,r) + LFE ch, ~1536.00 kbps avg
Субтитры: Russian (Chronos), English (Forced), English
"Знаете ли Вы, что..."
- Лара Флинн Бойл, сыграшая в сериале Донну Хейворд, не смогла продолжить путь своей героини в приквеле, поскольку на тот можент уже была занята в четырёх других лентах.
- Одни из ключевых фигур телесериала - Шерилинн Фенн (Одри Хорн) и Кайл МакЛахлен (агент Дэйл Купер) отказались участвовать в съёмках приквела. Последнего Линч всё-таки смог уговорить на сокращённую роль, а чтобы компенсировать пробелы, ввёл в фильм персонаж агента Честера Десмонта. Этот ход слегка нарушил логическую последовательность между событиями сериала, фильма и нескольких написанных по «Твин Пиксу» книг.
- Дэвид Линч долго не мог принять решение по поводу того, нужны или нет субтитры в ключевых сценах фильма. Британские дистрибьюторы картины приняли это решение за него, и в итоге субтитры есть во всех версиях фильма кроме британской.
- Роберт Энджелс впоследствии заявил, что первоначальный сценарий для фильма был гораздо длиннее той версии, которую снял Линч. По его словам, оригинального сценария хватило бы ещё и на сиквел, но режиссёр отснял только пять часов материала. Причём во многих из вырезанных сцен присутствовали персонажи из оригинального телесериала.
- Дэвид Линч, сыгравший Гордона Коула, назвал своего героя в честь одного из второстепенных персонажей драмы «Сансет Бульвар» (Sunset Blvd., 1950).
Свернуть
M.I.
Общее
Уникальный идентификатор         : 250375234365574031799893404889981435829 (0xBC5C84206CBF649FB819C5BB406CBFB5)
Полное имя                       : E:\Фильмы\Twin.Peaks.Fire.Walk.with.Me.1992.1080p.BluRay.6xRus.Eng.HDCLUB.mkv
Формат                           : Matroska
Версия формата                   : Version 2
Размер файла                     : 20,8 Гбайт
Продолжительность                : 2 ч. 14 м.
Общий поток                      : 22,1 Мбит/сек
Название фильма                  : Twin Peaks: Fire Walk with Me (1992) - Release for HDCLUB by AndreyTula
Дата кодирования                 : UTC 2011-08-04 13:31:51
Программа кодирования            : mkvmerge v3.4.0 ('Rapunzel') built on May 15 2010 09:38:20
Библиотека кодирования           : libebml v0.8.0 + libmatroska v0.9.0

Видео
Идентификатор                    : 1
Формат                           : AVC
Формат/Информация                : Advanced Video Codec
Профиль формата                  : High@L4.1
Параметр CABAC формата           : Да
Параметр ReFrames формата        : 4 кадра
Идентификатор кодека             : V_MPEG4/ISO/AVC
Продолжительность                : 2 ч. 14 м.
Битрейт                          : 15,0 Мбит/сек
Ширина                           : 1916 пикс.
Высота                           : 1032 пикс.
Соотношение сторон               : 1,857
Частота кадров                   : 24,000 кадр/сек
Цветовое пространство            : YUV
Подвыборка цветности             : 4:2:0
Битовая глубина                  : 8 бит
Тип развёртки                    : Прогрессивная
Бит/(Пиксели*Кадры)              : 0.316
Размер потока                    : 13,7 Гбайт (66%)
Заголовок                        : Release for HDCLUB by AndreyTula
Библиотека кодирования           : x264 core 114 r1913 5fd3dce
Настройки программы              : cabac=1 / ref=4 / deblock=1:-3:-3 / analyse=0x3:0x133 / me=umh / subme=10 / psy=1 / psy_rd=1.00:0.10 / mixed_ref=1 / me_range=64 / chroma_me=1 / trellis=2 / 8x8dct=1 / cqm=0 / deadzone=21,11 / fast_pskip=0 / chroma_qp_offset=-3 / threads=12 / sliced_threads=0 / nr=0 / decimate=0 / interlaced=0 / constrained_intra=0 / bframes=11 / b_pyramid=2 / b_adapt=2 / b_bias=0 / direct=3 / weightb=1 / open_gop=0 / weightp=2 / keyint=250 / keyint_min=24 / scenecut=40 / intra_refresh=0 / rc_lookahead=40 / rc=2pass / mbtree=0 / bitrate=15000 / ratetol=1.0 / qcomp=0.60 / qpmin=0 / qpmax=69 / qpstep=4 / cplxblur=20.0 / qblur=0.5 / vbv_maxrate=50000 / vbv_bufsize=62500 / nal_hrd=none / ip_ratio=1.40 / pb_ratio=1.30 / aq=1:0.70
Язык                             : English
Основные цвета                   : BT.709-5, BT.1361, IEC 61966-2-4, SMPTE RP177
Характеристики трансфера         : BT.709-5, BT.1361
Коэффициенты матрицы             : BT.709-5, BT.1361, IEC 61966-2-4 709, SMPTE RP177

Аудио #1
Идентификатор                    : 2
Формат                           : DTS
Формат/Информация                : Digital Theater Systems
Идентификатор кодека             : A_DTS
Продолжительность                : 2 ч. 14 м.
Вид битрейта                     : Постоянный
Битрейт                          : 1510 Кбит/сек
Каналы                           : 6 каналов
Расположение каналов             : Front: L C R, Side: L R, LFE
Частота                          : 48,0 КГц
Битовая глубина                  : 16 бит
Метод сжатия                     : С потерями
Размер потока                    : 1,42 Гбайт (7%)
Заголовок                        : DTS 5.1 1536 kbps Многоголосый закадровый, FDV
Язык                             : Russian

Аудио #2
Идентификатор                    : 3
Формат                           : AC-3
Формат/Информация                : Audio Coding 3
Расширение режима                : CM (complete main)
Идентификатор кодека             : A_AC3
Продолжительность                : 2 ч. 14 м.
Вид битрейта                     : Постоянный
Битрейт                          : 384 Кбит/сек
Каналы                           : 6 каналов
Расположение каналов             : Front: L C R, Side: L R, LFE
Частота                          : 48,0 КГц
Битовая глубина                  : 16 бит
Метод сжатия                     : С потерями
Размер потока                    : 370 Мбайт (2%)
Заголовок                        : AC3 5.1 384 kbps Многоголосый закадровый, LDV
Язык                             : Russian

Аудио #3
Идентификатор                    : 4
Формат                           : AC-3
Формат/Информация                : Audio Coding 3
Расширение режима                : CM (complete main)
Идентификатор кодека             : A_AC3
Продолжительность                : 2 ч. 14 м.
Вид битрейта                     : Постоянный
Битрейт                          : 448 Кбит/сек
Каналы                           : 4 канала
Расположение каналов             : Front: L C R, LFE
Частота                          : 48,0 КГц
Битовая глубина                  : 16 бит
Метод сжатия                     : С потерями
Размер потока                    : 432 Мбайт (2%)
Заголовок                        : AC3 3.1 448 kbps Многоголосый закадровый, Twister
Язык                             : Russian

Аудио #4
Идентификатор                    : 5
Формат                           : AC-3
Формат/Информация                : Audio Coding 3
Расширение режима                : CM (complete main)
Идентификатор кодека             : A_AC3
Продолжительность                : 2 ч. 14 м.
Вид битрейта                     : Постоянный
Битрейт                          : 192 Кбит/сек
Каналы                           : 2 канала
Расположение каналов             : Front: L R
Частота                          : 48,0 КГц
Битовая глубина                  : 16 бит
Метод сжатия                     : С потерями
Размер потока                    : 185 Мбайт (1%)
Заголовок                        : AC3 2.0 192 kbps Многоголосый закадровый, ОРТ
Язык                             : Russian

Аудио #5
Идентификатор                    : 6
Формат                           : DTS
Формат/Информация                : Digital Theater Systems
Идентификатор кодека             : A_DTS
Продолжительность                : 2 ч. 14 м.
Вид битрейта                     : Постоянный
Битрейт                          : 1510 Кбит/сек
Каналы                           : 6 каналов
Расположение каналов             : Front: L C R, Side: L R, LFE
Частота                          : 48,0 КГц
Битовая глубина                  : 16 бит
Метод сжатия                     : С потерями
Размер потока                    : 1,42 Гбайт (7%)
Заголовок                        : DTS 5.1 1536 kbps Одноголосый закадровый, А.Гаврилов
Язык                             : Russian

Аудио #6
Идентификатор                    : 7
Формат                           : DTS
Формат/Информация                : Digital Theater Systems
Идентификатор кодека             : A_DTS
Продолжительность                : 2 ч. 14 м.
Вид битрейта                     : Постоянный
Битрейт                          : 1510 Кбит/сек
Каналы                           : 6 каналов
Расположение каналов             : Front: L C R, Side: L R, LFE
Частота                          : 48,0 КГц
Битовая глубина                  : 16 бит
Метод сжатия                     : С потерями
Размер потока                    : 1,42 Гбайт (7%)
Заголовок                        : DTS 5.1 1536 kbps Одноголосый закадровый, С.Визгунов
Язык                             : Russian

Аудио #7
Идентификатор                    : 8
Формат                           : DTS
Формат/Информация                : Digital Theater Systems
Идентификатор кодека             : A_DTS
Продолжительность                : 2 ч. 14 м.
Вид битрейта                     : Постоянный
Битрейт                          : 1510 Кбит/сек
Каналы                           : 6 каналов
Расположение каналов             : Front: L C R, Side: L R, LFE
Частота                          : 48,0 КГц
Битовая глубина                  : 24 бит
Метод сжатия                     : С потерями
Размер потока                    : 1,42 Гбайт (7%)
Заголовок                        : DTS 5.1 1536 kbps
Язык                             : English

Текст #1
Идентификатор                    : 9
Формат                           : UTF-8
Идентификатор кодека             : S_TEXT/UTF8
Идентификатор кодека/Информация  : UTF-8 Plain Text
Заголовок                        : Chronos
Язык                             : Russian

Текст #2
Идентификатор                    : 10
Формат                           : UTF-8
Идентификатор кодека             : S_TEXT/UTF8
Идентификатор кодека/Информация  : UTF-8 Plain Text
Заголовок                        : Forced
Язык                             : English

Текст #3
Идентификатор                    : 11
Формат                           : UTF-8
Идентификатор кодека             : S_TEXT/UTF8
Идентификатор кодека/Информация  : UTF-8 Plain Text
Язык                             : English

Меню
00:00:00.000                     : en:00:00:00.000
00:02:54.125                     : en:00:02:54.125
00:07:39.750                     : en:00:07:39.750
00:19:26.333                     : en:00:19:26.333
00:26:56.292                     : en:00:26:56.292
00:33:47.167                     : en:00:33:47.167
00:42:02.417                     : en:00:42:02.417
00:56:35.208                     : en:00:56:35.208
01:04:48.042                     : en:01:04:48.042
01:24:15.208                     : en:01:24:15.208
01:32:39.083                     : en:01:32:39.083
01:40:45.250                     : en:01:40:45.250
01:52:14.250                     : en:01:52:14.250
01:58:23.083                     : en:01:58:23.083
02:06:26.250                     : en:02:06:26.250
02:12:03.042                     : en:02:12:03.042
Свернуть
Скриншоты
Изображение
Изображение
Изображение
Изображение
Изображение
Свернуть


Последний раз редактировалось Биг 2012-09-23 11:12, всего редактировалось 2 раз(а).
Не в сети
Профиль  
 Добавлено: 2011-08-07 11:30 (спустя 15 часов)
Стаж: 7 лет 1 месяц
Сообщений: 6
давно смотрел оч понравилоль . Большое спосибо скорости ещёб побольше
Не в сети
Профиль  
Начать новую темуОтветить на тему  [ Сообщений: 2 ] 
Вы не можете начинать темы
Вы не можете отвечать на сообщения
Вы не можете редактировать свои сообщения
Вы не можете удалять свои сообщения