Правила форума

Здесь находятся раздачи, на которых не было полного источника (сида) более месяца.
Вы можете вернуть релиз в соответствующий раздел, для этого напишите нам в специальной теме и встаньте на раздачу.
Новые релизы, повторяющие релизы в архиве, повторами не считаются.
Начать новую темуОтветить на тему  [ 1 сообщение ] 
Сообщения
 Добавлено: 2011-01-17 10:10
Модератор релиз-группы
Аватара пользователя
Стаж: 9 лет 1 месяц
Возраст: 97
Сообщений: 11659
Спасибок: 6532
Лайков: 269
Убить по расписанию / Ticking Clock

Изображение


Год выпуска: 2011
Страна: США
Жанр: Боевик, триллер
Продолжительность: 01:41:08
Перевод: Любительский (одноголосый закадровый)
Оригинальная звуковая дорожка

Режиссёр: Эрни Барбараш / Ernie Barbarash
В ролях: Кьюба Гудинг Мл., Нил Макдонаф, Остин Абрамс, Янси Ариас, Даниэль Николет, Вероника Берри, Дэйн Родс, Анжелина Сордз, Моника Акоста, Никки Эйкокс, Эрика Бардин, Маверик Бадрикс, Шон Пол Бро, Росс Бритс, Эрик Браун, Рэймонд Филип Майкл Даймонд, Джеймс Дюмонт, Дж.Д. Эвермор, Шанна Форресталль, Эдрианн Фрост, Трей Фуллер, Эмбер Гайани, Хезер Харрисон, Дэвид Дженсен, Блисс Келли, Билл Рейни, Эбби Рао, Шона Раполд, Джон Т. Уилсон Мл.
Описание: Репортер натыкается на журнал убийцы, переполненного планами убить определенных людей, и занимается расследованиями самостоятельно, и вдруг находит, что каждый след приводит к 11-летнему мальчику из сиротского приюта…
Мировая премьера: 4 января 2011
Изображение 5.846 голосов:54

Изображение


Качество: BDRip, 1080p
Формат: MKV
Видео кодек: H264 (AVC)
Аудио кодек: AC3 (Dolby Digital)
Видео: MPEG-4 AVC, 11.0 Мбит/с, 1920x1080, 23.976 кадр/с
Аудио #1: AC3, 6 ch, 448 Кбит/с [Любительский (одноголосый закадровый)]
Аудио #2: DTS, 6 ch, 1536 Кбит/с [Оригинальная звуковая дорожка]

Mi
General
Unique ID : 241497013853911620875382164304295130155 (0xB5AEA20F4FBDA00DBCF8299D78A4742B)
Format : Matroska
File size : 9.15 GiB
Duration : 1h 41mn
Overall bit rate : 13.0 Mbps
Movie name : --SCHUMAHER--
Encoded date : UTC 2011-01-15 19:18:16
Writing application : mkvmerge v4.0.0 ('The Stars were mine') сборка от Jun 6 2010 16:18:42
Writing library : libebml v1.0.0 + libmatroska v1.0.0

Video
ID : 1
Format : AVC
Format/Info : Advanced Video Codec
Format profile : High@L4.1
Format settings, CABAC : No
Format settings, ReFrames : 1 frame
Codec ID : V_MPEG4/ISO/AVC
Duration : 1h 41mn
Bit rate mode : Constant
Bit rate : 11.0 Mbps
Width : 1 920 pixels
Height : 1 080 pixels
Display aspect ratio : 16:9
Frame rate : 23.976 fps
Standard : NTSC
Color space : YUV
Chroma subsampling : 4:2:0
Bit depth : 8 bits
Scan type : Progressive
Bits/(Pixel*Frame) : 0.221
Stream size : 7.59 GiB (83%)
Language : English
Color primaries : BT.709-5, BT.1361, IEC 61966-2-4, SMPTE RP177
Transfer characteristics : BT.709-5, BT.1361
Matrix coefficients : BT.709-5, BT.1361, IEC 61966-2-4 709, SMPTE RP177

Audio #1
ID : 2
Format : AC-3
Format/Info : Audio Coding 3
Mode extension : CM (complete main)
Codec ID : A_AC3
Duration : 1h 41mn
Bit rate mode : Constant
Bit rate : 448 Kbps
Channel(s) : 6 channels
Channel positions : Front: L C R, Side: L R, LFE
Sampling rate : 48.0 KHz
Bit depth : 16 bits
Compression mode : Lossy
Stream size : 324 MiB (3%)
Language : Russian

Audio #2
ID : 3
Format : DTS
Format/Info : Digital Theater Systems
Codec ID : A_DTS
Duration : 1h 41mn
Bit rate mode : Constant
Bit rate : 1 510 Kbps
Channel(s) : 6 channels
Channel positions : Front: L C R, Side: L R, LFE
Sampling rate : 48.0 KHz
Bit depth : 24 bits
Compression mode : Lossy
Stream size : 1.07 GiB (12%)
Language : English

Text #1
ID : 4
Format : UTF-8
Codec ID : S_TEXT/UTF8
Codec ID/Info : UTF-8 Plain Text
Language : Russian

Text #2
ID : 5
Format : UTF-8
Codec ID : S_TEXT/UTF8
Codec ID/Info : UTF-8 Plain Text
Language : English

Свернуть
Скриншоты
Изображение

Изображение

Изображение

Изображение
Свернуть
Не в сети
Профиль  
Начать новую темуОтветить на тему  [ 1 сообщение ] 
Вы не можете начинать темы
Вы не можете отвечать на сообщения
Вы не можете редактировать свои сообщения
Вы не можете удалять свои сообщения