Правила форума

Здесь находятся раздачи, на которых не было полного источника (сида) более месяца.
Вы можете вернуть релиз в соответствующий раздел, для этого напишите нам в специальной теме и встаньте на раздачу.
Новые релизы, повторяющие релизы в архиве, повторами не считаются.
Начать новую темуОтветить на тему  [ Сообщений: 2 ] 
Сообщения
 Добавлено: 2014-03-14 02:45
DVD Release Group
Аватара пользователя
Стаж: 7 лет 1 месяц
Сообщений: 3563
Спасибок: 247498
Лайков: 1020
Уцелевший

Lone Survivor


Изображение


Год выпуска: 2013
Страна: США
Жанр: Боевик, триллер, драма, военный
Продолжительность: 02:01:14
Перевод: Профессиональный (полное дублирование)
Субтитры: Нет
Режиссер: Питер Берг
В ролях: Марк Уолберг, Тейлор Китч, Эмиль Хирш, Бен Фостер, Юсуф Азами, Али Сулиман, Эрик Бана, Александр Людвиг, Рич Тинг, Дэн Билзериан
Описание: Афганистан, 2005 год. Команда американских спецназовцев получает задание обезвредить известного лидера талибов Ахмада Шаха. Попав в ловушку, солдаты принимают неравный кровопролитный бой, и все они погибают героями. Все, кроме одного. Для уцелевшего Маркуса Латтрела бой только начинается: он любой ценой должен выжить и пробраться к «своим». Когда почти всё потеряно, ему решается помочь Гулаб — мирный человек, ненавидящий войну.
Изображение Изображение
Sample:
http://multi-up.com/958645
Качество: WEB-DL 720p
Формат: MKV
Видео кодек: H.264
Аудио кодек: AC3
Видео: 1280x540 24fps 3924Kbps
Аудио: 48kHz 6ch 384kbps
"MediaInfo"
Формат : Matroska
Версия формата : Version 2
Размер файла : 3,72 Гбайт
Продолжительность : 2 ч. 1 м.
Общий поток : 4395 Кбит/сек
Дата кодирования : UTC 2014-03-13 19:28:21
Программа кодирования : mkvmerge v5.8.0 ('No Sleep / Pillow') built on Sep 2 2012 15:37:04
Библиотека кодирования : libebml v1.2.3 + libmatroska v1.3.0

Видео
Идентификатор : 1
Формат : AVC
Формат/Информация : Advanced Video Codec
Профиль формата : Main@L3.1
Параметр CABAC формата : Нет
Параметр ReFrames формата : 2 кадра
Идентификатор кодека : V_MPEG4/ISO/AVC
Продолжительность : 2 ч. 1 м.
Битрейт : 3924 Кбит/сек
Ширина : 1280 пикселей
Высота : 540 пикселей
Соотношение сторон : 2,35:1
Частота кадров : 24,000 кадра/сек
Цветовое пространство : YUV
Субдискретизация насыщенности : 4:2:0
Битовая глубина : 8 бит
Тип развёртки : Прогрессивная
Бит/(Пиксели*Кадры) : 0.237
Размер потока : 3,32 Гбайт (89%)
Язык : English
Default : Да
Forced : Нет
Основные цвета : BT.709-5, BT.1361, IEC 61966-2-4, SMPTE RP177
Характеристики трансфера : BT.709-5, BT.1361
Коэффициенты матрицы : BT.709-5, BT.1361, IEC 61966-2-4 709, SMPTE RP177

Аудио
Идентификатор : 2
Формат : AC-3
Формат/Информация : Audio Coding 3
Расширение режима : CM (complete main)
Идентификатор кодека : A_AC3
Продолжительность : 2 ч. 1 м.
Вид битрейта : Постоянный
Битрейт : 384 Кбит/сек
Каналы : 6 каналов
Расположение каналов : Front: L C R, Side: L R, LFE
Частота : 48,0 КГц
Битовая глубина : 16 бит
Метод сжатия : С потерями
Размер потока : 333 Мбайт (9%)
Язык : Russian
Default : Да
Forced : Нет

Меню
00:00:00.000 : en:Глава 1
00:10:36.000 : en:Глава 2
00:15:38.000 : en:Глава 3
00:20:40.000 : en:Глава 4
00:25:41.000 : en:Глава 5
00:30:43.000 : en:Глава 6
00:35:44.000 : en:Глава 7
00:40:45.000 : en:Глава 8
00:45:45.000 : en:Глава 9
00:50:50.000 : en:Глава 10
00:55:57.000 : en:Глава 11
01:01:00.000 : en:Глава 12
01:06:06.000 : en:Глава 13
01:11:07.000 : en:Глава 14
01:16:10.000 : en:Глава 15
01:21:12.000 : en:Глава 16
01:26:13.000 : en:Глава 17
01:31:15.000 : en:Глава 18
01:36:15.000 : en:Глава 19
01:41:16.000 : en:Глава 20
01:46:20.000 : en:Глава 21
01:51:20.000 : en:Глава 22
Свернуть

"Скриншоты"
Изображение
Изображение
Изображение
Изображение
Изображение
Изображение
Изображение
Свернуть
 rfhyfdfk3 нравится это.
Не в сети
Профиль  
 Добавлено: 2014-03-21 20:11 (спустя 7 дней)
Стаж: 8 лет 10 месяцев
Возраст: 25
Сообщений: 217
Спасибок: 270
Лайков: 1
Cкрытый текст
на 1 скриншоте справа от Китча сидит Латрелл
Свернуть
Не в сети
Профиль  
Начать новую темуОтветить на тему  [ Сообщений: 2 ] 
Вы не можете начинать темы
Вы не можете отвечать на сообщения
Вы не можете редактировать свои сообщения
Вы не можете удалять свои сообщения