Правила форума

Здесь находятся раздачи, на которых не было полного источника (сида) более месяца.
Вы можете вернуть релиз в соответствующий раздел, для этого напишите нам в специальной теме и встаньте на раздачу.
Новые релизы, повторяющие релизы в архиве, повторами не считаются.
Начать новую темуОтветить на тему  [ 1 сообщение ] 
Сообщения
 Добавлено: 2013-07-18 04:56
Аватара пользователя
Стаж: 7 лет 2 месяца
Сообщений: 7167
Спасибок: 82018
Лайков: 2438
Улики / Evidence

«Собери ужас по фрагментам»

Изображение


Год выпуска: 2013
Страна: США
Жанр: триллер, ужасы
Продолжительность: 01:33:57
Перевод: Профессиональный (дубляж) + Оригинальная звуковая дорожка
Субтитры: Английские

Режиссёр: Олатунде Осунсанми
В ролях: Рада Митчелл, Стивен Мойер, Торри ДеВито, Нолан Фанк, Дейл Дикки, Гарри Дж. Ленникс, Кэйтлин Стэйси, Амл Амин, Джон Хеймс Ньютон, Светлана Меткина
Описание: В автобусе, направлявшемся в Лас-Вегас, совершено жестокое убийство. На месте преступления — ни одного уцелевшего. Только несколько трупов и хаотичный набор мобильных телефонов, карманных видеокамер и других устройств, оставшихся от потерпевших. Детектив, которому поручено расследование, с помощью сохранившихся записей пытается восстановить цепь загадочных событий, приведших к трагедии.


Качество: WEB-DLRip 720p
Формат: MKV
Видео кодек: H264 (AVC)
Аудио кодек: AC3 (Dolby Digital)
Видео: 1 280x532, 23.976 fps, 3 938 Kbps
Аудио #1: 48.0 KHz, 2 ch, 192 Kbps [Профессиональный (дубляж)] Звук с TS
Аудио #2: 48.0 KHz, 6 ch, 384 Kbps [Оригинальная звуковая дорожка]
Субтитры: Английские
Изображение
Скриншоты
Изображение

Изображение

Изображение

Изображение

Изображение
Свернуть
MI
General
Unique ID : 230779296671414242952961656354893416989 (0xAD9E79CE0E4155909F19BD157A8B4A1D)
Complete name : Улики.2013.mkv
Format : Matroska
Format version : Version 2
File size : 3.02 GiB
Duration : 1h 33mn
Overall bit rate : 4 605 Kbps
Encoded date : UTC 2013-07-17 22:53:28
Writing application : mkvmerge v2.9.8 ('C'est le bon') built on Nov 20 2009 13:01:15
Writing library : libebml v0.7.9 + libmatroska v0.8.1

Video
ID : 1
Format : AVC
Format/Info : Advanced Video Codec
Format profile : Main@L3.1
Format settings, CABAC : No
Format settings, ReFrames : 2 frames
Codec ID : V_MPEG4/ISO/AVC
Duration : 1h 33mn
Bit rate : 3 938 Kbps
Width : 1 280 pixels
Height : 532 pixels
Display aspect ratio : 2.40:1
Frame rate : 23.976 fps
Color space : YUV
Chroma subsampling : 4:2:0
Bit depth : 8 bits
Scan type : Progressive
Bits/(Pixel*Frame) : 0.241
Stream size : 2.58 GiB (86%)
Language : English
Default : No
Forced : No
Color primaries : BT.709-5, BT.1361, IEC 61966-2-4, SMPTE RP177
Transfer characteristics : BT.709-5, BT.1361
Matrix coefficients : BT.709-5, BT.1361, IEC 61966-2-4 709, SMPTE RP177

Audio #1
ID : 2
Format : AC-3
Format/Info : Audio Coding 3
Mode extension : CM (complete main)
Format settings, Endianness : Big
Codec ID : A_AC3
Duration : 1h 33mn
Bit rate mode : Constant
Bit rate : 192 Kbps
Channel(s) : 2 channels
Channel positions : Front: L R
Sampling rate : 48.0 KHz
Bit depth : 16 bits
Compression mode : Lossy
Stream size : 129 MiB (4%)
Language : Russian
Default : Yes
Forced : No

Audio #2
ID : 3
Format : AC-3
Format/Info : Audio Coding 3
Mode extension : CM (complete main)
Format settings, Endianness : Big
Codec ID : A_AC3
Duration : 1h 33mn
Bit rate mode : Constant
Bit rate : 384 Kbps
Channel(s) : 6 channels
Channel positions : Front: L C R, Side: L R, LFE
Sampling rate : 48.0 KHz
Bit depth : 16 bits
Compression mode : Lossy
Stream size : 258 MiB (8%)
Language : English
Default : No
Forced : No

Text
ID : 4
Format : UTF-8
Codec ID : S_TEXT/UTF8
Codec ID/Info : UTF-8 Plain Text
Language : English
Default : No
Forced : No

Menu
00:00:00.000 : en:Evidence
00:07:52.000 : en:This Could Be It
00:14:25.000 : en:Viva Las Vegas
00:23:23.000 : en:Help
00:31:06.000 : en:First Vicitim
00:40:31.000 : en:Night Vision
00:47:59.000 : en:I Know Why
00:54:39.000 : en:A Motive
01:01:29.000 : en:Fuel House
01:07:56.000 : en:Just A Game
01:19:26.000 : en:Masterpiece
01:28:40.000 : en:End Credits


Свернуть
 rotametr нравится это.
Не в сети
Профиль  
Начать новую темуОтветить на тему  [ 1 сообщение ] 
Вы не можете начинать темы
Вы не можете отвечать на сообщения
Вы не можете редактировать свои сообщения
Вы не можете удалять свои сообщения