Правила форума

Здесь находятся раздачи, на которых не было полного источника (сида) более месяца.
Вы можете вернуть релиз в соответствующий раздел, для этого напишите нам в специальной теме и встаньте на раздачу.
Новые релизы, повторяющие релизы в архиве, повторами не считаются.
Начать новую темуОтветить на тему  [ 1 сообщение ] 
Сообщения
 Добавлено: 2012-10-11 06:36
Top-releaser
Аватара пользователя
Стаж: 6 лет 7 месяцев
Сообщений: 2078
Спасибок: 3230
Лайков: 9
Изображение

Универсальный солдат 2: Возвращение
Universal Soldier: The Return


Год выпуска: 1999
Страна: США
Слоган: «Prepare to become obsolete»
Жанр: фантастика, боевик
Продолжительность: 01:22:58
Перевод: Профессиональный (полное дублирование)
Режиссер: Мик Роджерс
Сценарий: Уильям Мэлоун, Джон Фазано, Ричард Ротстайн, Кристофер Лейтч, Дин Девлин
Продюсер: Крэйг Баумгартен, Аллен Шапиро, Жан-Клод Ван Дамм, Дэниэл Мельник, Адам Меримс
Оператор: Майк Бенсон
Композитор: Дон Дэвис
В ролях: Жан-Клод Ван Дамм, Майкл Джей Уайт, Хайди Шанц, Ксандер Беркли, Джастин Лазард, Киана Том, Дэниэл фон Барген, Джеймс Блэк, Керис Пейдж Брайант, Билл Голдберг, Брент Андерсон, Брент Хинкли
Бюджет: $45 000 000
Сборы в США: $10 667 893
Мировая премьера: 4 июля 1999
Релиз на Blu-ray: 25 июня 2009, «Columbia/Sony»
Описание: Универсальный солдат - совершенная кибернетическая машина убийства, неустрашимый воин, который не ведает боли и страха. Когда-то Люк Деваро был одним из них. Теперь в качестве технического эксперта он работает над созданием новых непобедимых роботов в человеческом облике, киборгов следующего поколения.
Секретный проект подходит к своей кульминационной точке, но в этот момент суперкомпьютер, контролирующий целую армию универсальных солдат, выходит из повиновения. Он находит себе неуязвимое тело и возглавляет легион идеальных убийц. Совершенное оружие, созданное правительством для защиты людей, оборачивается против человечества. И никому не дано знать, что происходит внутри неуправляемой машины. Кроме того, кто уже однажды был ею.


Изображение User Rating: 4.679 (4 396)
Изображение User Rating: 3.70 (15 975)
MPAA: R - Лицам до 17 лет обязательно присутствие взрослого
Качество: BDRip, 720p
Формат: Matroska
Видео: AVC; 1280x688 (1.860); 6681 Kbps; 23,976 fps; 0,316 bit/pixel
Аудио №1: Russian; AC3; 640 Kbps; CBR; 6 ch - Дубляж
Аудио №2: Russian; DTS; 1509 Kbps; CBR; 6 ch; 24 bit - Одноголоска
Аудио №3: Russian; AC3; 448 Kbps; CBR; 6 ch - Многоголоска
Аудио №4: Russian; AC3; 256 Kbps; CBR; 2 ch - Одноголоска, Кашкин
Аудио №5: English; DTS; 1509 Kbps; CBR; 6 ch; 24 bit
Субтитры: Russian, English

MediaInfo
Общее
Уникальный идентификатор : 236678740092308371192549910673904535411 (0xB20EAAD27E1A77E28AFBA57D69268773)
Полное имя : Z:\WWW\TR-Downloads\Universal.Soldier.The.Return.1999.720p.[R.G.Daredevil].mkv
Формат : Matroska
Версия формата : Version 2
Размер файла : 6,53 Гбайт
Продолжительность : 1 ч. 22 м.
Общий поток : 11,3 Мбит/сек
Дата кодирования : UTC 2010-11-05 10:53:27
Программа кодирования : mkvmerge v4.2.0 ('No Talking') сборка от Jul 28 2010 18:38:23
Библиотека кодирования : libebml v1.0.0 + libmatroska v1.0.0

Видео
Идентификатор : 1
Формат : AVC
Формат/Информация : Advanced Video Codec
Профиль формата : High@L4.1
Параметр CABAC формата : Да
Параметр ReFrames формата : 5 кадров
Идентификатор кодека : V_MPEG4/ISO/AVC
Продолжительность : 1 ч. 22 м.
Битрейт : 6902 Кбит/сек
Ширина : 1280 пикселей
Высота : 688 пикселей
Соотношение сторон : 1,85:1
Частота кадров : 23,976 кадра/сек
Цветовое пространство : YUV
Субдискретизация насыщенности : 4:2:0
Битовая глубина : 8 бит
Тип развёртки : Прогрессивная
Бит/(Пиксели*Кадры) : 0.327
Размер потока : 3,87 Гбайт (59%)
Библиотека кодирования : x264 core 67 r1137M 1fda882
Настройки программы : cabac=1 / ref=5 / deblock=1:0:0 / analyse=0x3:0x133 / me=umh / subme=7 / psy_rd=1.0:0.0 / mixed_ref=1 / me_range=16 / chroma_me=1 / trellis=1 / 8x8dct=1 / cqm=0 / deadzone=21,11 / chroma_qp_offset=-2 / threads=6 / nr=0 / decimate=1 / mbaff=0 / bframes=3 / b_pyramid=1 / b_adapt=1 / b_bias=0 / direct=1 / wpredb=1 / keyint=250 / keyint_min=25 / scenecut=40 / rc=2pass / bitrate=6902 / ratetol=1.0 / qcomp=0.60 / qpmin=10 / qpmax=51 / qpstep=4 / cplxblur=20.0 / qblur=0.5 / ip_ratio=1.40 / pb_ratio=1.30 / aq=1:1.00
Язык : English
Default : Да
Forced : Нет

Аудио #1
Идентификатор : 2
Формат : AC-3
Формат/Информация : Audio Coding 3
Расширение режима : CM (complete main)
Параметр Endianness формата : Big
Идентификатор кодека : A_AC3
Продолжительность : 1 ч. 22 м.
Вид битрейта : Постоянный
Битрейт : 640 Кбит/сек
Каналы : 6 каналов
Расположение каналов : Front: L C R, Side: L R, LFE
Частота : 48,0 КГц
Битовая глубина : 16 бит
Метод сжатия : С потерями
Размер потока : 380 Мбайт (6%)
Заголовок : Дубляж с СЕЕ, АС3 5.1 640kbps
Язык : Russian
Default : Да
Forced : Нет

Аудио #2
Идентификатор : 3
Формат : DTS
Формат/Информация : Digital Theater Systems
Идентификатор кодека : A_DTS
Продолжительность : 1 ч. 22 м.
Вид битрейта : Постоянный
Битрейт : 1510 Кбит/сек
Каналы : 6 каналов
Расположение каналов : Front: L C R, Side: L R, LFE
Частота : 48,0 КГц
Битовая глубина : 24 бит
Метод сжатия : С потерями
Размер потока : 896 Мбайт (13%)
Заголовок : Одноголоска, DTS 5.1 1536kbps
Язык : Russian
Default : Нет
Forced : Нет

Аудио #3
Идентификатор : 4
Формат : AC-3
Формат/Информация : Audio Coding 3
Расширение режима : CM (complete main)
Параметр Endianness формата : Big
Идентификатор кодека : A_AC3
Продолжительность : 1 ч. 22 м.
Вид битрейта : Постоянный
Битрейт : 448 Кбит/сек
Каналы : 6 каналов
Расположение каналов : Front: L C R, Side: L R, LFE
Частота : 48,0 КГц
Битовая глубина : 16 бит
Метод сжатия : С потерями
Размер потока : 266 Мбайт (4%)
Заголовок : Многоголоска, АС3 5.1 448kbps
Язык : Russian
Default : Нет
Forced : Нет

Аудио #4
Идентификатор : 5
Формат : AC-3
Формат/Информация : Audio Coding 3
Расширение режима : CM (complete main)
Параметр Endianness формата : Big
Идентификатор кодека : A_AC3
Продолжительность : 1 ч. 22 м.
Вид битрейта : Постоянный
Битрейт : 256 Кбит/сек
Каналы : 2 канала
Расположение каналов : Front: L R
Частота : 48,0 КГц
Битовая глубина : 16 бит
Метод сжатия : С потерями
Размер потока : 152 Мбайт (2%)
Заголовок : Кашкин, АС3 2.0 256kbps
Язык : Russian
Default : Нет
Forced : Нет

Аудио #5
Идентификатор : 6
Формат : DTS
Формат/Информация : Digital Theater Systems
Идентификатор кодека : A_DTS
Продолжительность : 1 ч. 22 м.
Вид битрейта : Постоянный
Битрейт : 1510 Кбит/сек
Каналы : 6 каналов
Расположение каналов : Front: L C R, Side: L R, LFE
Частота : 48,0 КГц
Битовая глубина : 24 бит
Метод сжатия : С потерями
Размер потока : 896 Мбайт (13%)
Заголовок : English, DTS 5.1 1536kbps
Язык : English
Default : Нет
Forced : Нет

Текст #1
Идентификатор : 7
Формат : UTF-8
Идентификатор кодека : S_TEXT/UTF8
Идентификатор кодека/Информация : UTF-8 Plain Text
Заголовок : Субтитры GЕLULА & СО., lNС.
Язык : Russian
Default : Да
Forced : Нет

Текст #2
Идентификатор : 8
Формат : UTF-8
Идентификатор кодека : S_TEXT/UTF8
Идентификатор кодека/Информация : UTF-8 Plain Text
Язык : English
Default : Нет
Forced : Нет
Свернуть
Скриншоты

Изображение
Изображение
Изображение
Изображение
Изображение
Свернуть
Не в сети
Профиль  
Начать новую темуОтветить на тему  [ 1 сообщение ] 
Вы не можете начинать темы
Вы не можете отвечать на сообщения
Вы не можете редактировать свои сообщения
Вы не можете удалять свои сообщения