Правила форума

Здесь находятся раздачи, на которых не было полного источника (сида) более месяца.
Вы можете вернуть релиз в соответствующий раздел, для этого напишите нам в специальной теме и встаньте на раздачу.
Новые релизы, повторяющие релизы в архиве, повторами не считаются.
Начать новую темуОтветить на тему  [ 1 сообщение ] 
Сообщения
 Добавлено: 2012-10-10 17:41
Top-releaser
Аватара пользователя
Стаж: 6 лет 7 месяцев
Сообщений: 2078
Спасибок: 3230
Лайков: 9
Изображение

Универсальный солдат
Universal Soldier


Год выпуска: 1992
Страна: США
Слоган: «Genetically enhanced machines.»
Жанр: фантастика, боевик, драма
Продолжительность: 01:43:44
Перевод: Профессиональный (многоголосый, закадровый)
Режиссер: Роланд Эммерих
Сценарий: Ричард Ротстайн, Кристофер Лейтч, Дин Девлин
Продюсер: Крэйг Баумгартен, Оливер Эберли, Дональд Хайцер, Марио Кассар, Джоэль Б. Майклс
Оператор: Карл Вальтер Линденлауб
Композитор: Кристофер Франке, Айс-Ти, Гарри Шеннон, Тим Саймонек
В ролях: Жан-Клод Ван Дамм, Дольф Лундгрен, Элли Уокер, Эд О’Росс, Джерри Орбак, Леон Риппи, Тико Уэллс, Ральф Мёллер, Роберт Требор, Джин Дэвис, Дрю Снайдер, Том ’Тайни’ Листер мл.
Бюджет: $23 000 000
Сборы в США: $36 299 898
Мировая премьера: 10 июля 1992
Релиз на DVD: 8 сентября 2009, «Юниверсал Пикчерс Рус»
Описание: Вьетнам, 1969 год, первая стычка двух американских солдат - Люка и Скотта: Люк не может стрелять в безоружных людей, Скотт же готов убивать и убивать с нечеловечески-яростной жестокостью, о которой свидетельствует ожерелье из ушей, отрезанных им у вьетнамцев. Спустя годы Люк и Скотт вновь оказываются в одном отряде - спецподразделении «универсальных солдат», которых бросают на выполнение самых опасных заданий (например, на ликвидацию террористов).
«Универсального солдата» можно попытаться убить, но он будет подниматься вновь и вновь, и если понадобится, то ученые, работающие над сверхсекретным военным проектом, в специальной лаборатории займутся оживлением серьезно пострадавшего «универсала». Однако, даже зная об этом, Скотт с упорством маньяка будет преследовать Люка, чтобы сойтись с ним в решающем поединке не на жизнь, а на смерть.


Изображение User Rating: 6.973 (11 507)
Изображение User Rating: 5.80 (40 660)
MPAA: R - Лицам до 17 лет обязательно присутствие взрослого
Качество: BDRip, 720p
Формат: Matroska
Видео: AVC; 1280x546 (2.35:1); 5482 Kbps; 23,976 fps; 0,327 bit/pixel
Аудио #1: Russian; AC3; 384 Kbps; CBR; 6 ch - Многоголосный, Twister
Аудио #2: Russian; AC3; 640 Kbps; CBR; 6 ch - Многоголосный, AuraFilm
Аудио #3: Russian; AC3; 384 Kbps; CBR; 6 ch - Авторский, Гаврилов
Аудио #4: Russian; DTS; 1510 Kbps; CBR; 6 ch - Авторский, Горчаков
Аудио #5: Russian; DTS; 1510 Kbps; CBR; 6 ch - Английский
Субтитры: Russian

MediaInfo
Общее
Уникальный идентификатор : 202586077473109653804892894899298191793 (0x9868A8C75EA9F6E08A4DE9D0279D49B1)
Полное имя : Z:\WWW\TR-Downloads\Universal Soldier [1992.BDRip.720p]\Universal Soldier [1992.BDRip.720p].mkv
Формат : Matroska
Версия формата : Version 2
Размер файла : 4,34 Гбайт
Продолжительность : 1 ч. 43 м.
Общий поток : 5985 Кбит/сек
Название фильма : Универсальный Солдат [1992, BDRip/720p] || big1@HQFans
Дата кодирования : UTC 2012-01-20 09:14:03
Программа кодирования : mkvmerge v5.0.1 ('Es ist Sommer') built on Nov 6 2011 16:23:40
Библиотека кодирования : libebml v1.2.2 + libmatroska v1.3.0

Видео
Идентификатор : 1
Формат : AVC
Формат/Информация : Advanced Video Codec
Профиль формата : High@L4.1
Параметр CABAC формата : Да
Параметр ReFrames формата : 9 кадров
Идентификатор кодека : V_MPEG4/ISO/AVC
Продолжительность : 1 ч. 43 м.
Битрейт : 5600 Кбит/сек
Ширина : 1280 пикселей
Высота : 546 пикселей
Соотношение сторон : 2,35:1
Частота кадров : 23,976 кадра/сек
Цветовое пространство : YUV
Субдискретизация насыщенности : 4:2:0
Битовая глубина : 8 бит
Тип развёртки : Прогрессивная
Бит/(Пиксели*Кадры) : 0.334
Размер потока : 3,97 Гбайт (92%)
Заголовок : Универсальный Солдат [1992, BDRip/720p] || big1@HQFans
Библиотека кодирования : x264 core 120 r2146 bcd41db
Настройки программы : cabac=1 / ref=9 / deblock=1:-3:-3 / analyse=0x3:0x133 / me=umh / subme=10 / psy=1 / psy_rd=1.00:0.20 / mixed_ref=1 / me_range=32 / chroma_me=1 / trellis=2 / 8x8dct=1 / cqm=0 / deadzone=21,11 / fast_pskip=1 / chroma_qp_offset=-3 / threads=6 / sliced_threads=0 / nr=0 / decimate=1 / interlaced=0 / bluray_compat=0 / constrained_intra=0 / bframes=5 / b_pyramid=2 / b_adapt=2 / b_bias=0 / direct=3 / weightb=1 / open_gop=0 / weightp=2 / keyint=250 / keyint_min=23 / scenecut=40 / intra_refresh=0 / rc_lookahead=60 / rc=2pass / mbtree=1 / bitrate=5600 / ratetol=1.0 / qcomp=0.60 / qpmin=0 / qpmax=69 / qpstep=4 / cplxblur=20.0 / qblur=0.5 / ip_ratio=1.40 / aq=1:1.00
Язык : English
Default : Да
Forced : Нет

Аудио
Идентификатор : 2
Формат : AC-3
Формат/Информация : Audio Coding 3
Расширение режима : CM (complete main)
Параметр Endianness формата : Big
Идентификатор кодека : A_AC3
Продолжительность : 1 ч. 43 м.
Вид битрейта : Постоянный
Битрейт : 384 Кбит/сек
Каналы : 6 каналов
Расположение каналов : Front: L C R, Side: L R, LFE
Частота : 48,0 КГц
Битовая глубина : 16 бит
Метод сжатия : С потерями
Размер потока : 285 Мбайт (6%)
Заголовок : MVO {Twister} [AC3 5.1@384kbps]
Язык : Russian
Default : Да
Forced : Нет

Текст
Идентификатор : 3
Формат : UTF-8
Идентификатор кодека : S_TEXT/UTF8
Идентификатор кодека/Информация : UTF-8 Plain Text
Заголовок : Full
Язык : Russian
Default : Нет
Forced : Нет
Свернуть
"Знаете ли Вы, что..."
  • Во время показа оригинального трейлера в кадре играла музыка из фильма «Терминатор 2»
  • Слова «вот видите, они повсюду» являеться импровизацией Лундгрена.
  • Финальная драка снималась три дня.
  • Ральф Мюллер, сыгравший одного из солдат уже играл с Ван Даммом в фильме «Киборг».
  • Постановщиком трюков в картине был Вик Армстронг - позже Лундгрен сыграл в режиссёрском дебюте Вика - «Дерево Джошуа».
  • Первоначально режиссёром должен был стать Эндрю Девис, но продюсеры предпочли европейца Эммериха, мотивируя это тем, что с двумя европейцами-актерами лучше будет работать европеец-режиссер.
  • Первоначально, фильм должен был закончиться тем, что и Лундгрена, и Ван Дамма убивают приехавшие военные.
  • Из фильма был вырезан эпизод, в котором Лундгрен рассказывает плачущему ребёнку и его матери об ужасах войны - как именно он перерезал глотки вьетконговцам и т. д.
  • На ранних этапах создания картины (тогда ещё «Кристальные рыцари») работал сценарист Рос ЛаМанна (Час Пик 1,2).
  • Первоначально создатели фильма никак не могли определиться в выборе место съемок. Было два варианта: Мексика и Центральная Европа. Но в итоге картина снималась на юге США в штатах Аризона (города Эшфорк, Хлорид и Киннгмен) и Невада (г. Лейк Мид).
  • О начале проекта создания фильма было объявлено еще в начале 1990 года, старт съемочного процесса состоялся 12 августа 1991 года.
  • Лундгрен познакомился с будущей женой во время съёмок этого фильма.
Свернуть
Скриншоты

Изображение
Изображение
Изображение
Изображение
Изображение
Свернуть
Не в сети
Профиль  
Начать новую темуОтветить на тему  [ 1 сообщение ] 
Вы не можете начинать темы
Вы не можете отвечать на сообщения
Вы не можете редактировать свои сообщения
Вы не можете удалять свои сообщения