Правила форума

Здесь находятся раздачи, на которых не было полного источника (сида) более месяца.
Вы можете вернуть релиз в соответствующий раздел, для этого напишите нам в специальной теме и встаньте на раздачу.
Новые релизы, повторяющие релизы в архиве, повторами не считаются.
Начать новую темуОтветить на тему  [ Сообщений: 2 ] 
Сообщения
 Добавлено: 2011-07-22 08:27
Модератор релиз-группы
Аватара пользователя
Стаж: 9 лет 1 месяц
Возраст: 97
Сообщений: 11659
Спасибок: 6532
Лайков: 269
Утомленные солнцем 2: Цитадель

Изображение


Год выпуска: 2011
Страна: Россия
Жанр: драма, военный
Продолжительность: 02:37:07
Перевод: Не требуется

Режиссёр: Никита Михалков
В ролях: Никита Михалков, Надежда Михалкова, Анна Михалкова, Олег Меньшиков, Сергей Маковецкий, Инна Чурикова, Роман Мадянов, Сергей Степанченко, Александр Фисенко, Дмитрий Дюжев
Описание: Своей искалеченной судьбой заплатил комдив Котов за восстановление доброго имени. Он возвращается в дом, воспоминания о котором давали ему силы все эти страшные годы. Но то, что ждало в этом доме, его потрясло. Все изменилось, его хрупкий мир рухнул. Котову снова придется сражаться. За свое имя, за свою честь, за свою любовь, за свою Цитадель...

Изображение
Качество:BDRemux
Формат: m2ts
Видео кодек: MPEG-4(AVC)
Аудио кодек: AC3 (Dolby Digital)
Видео: MPEG4 AVC (H.264), High Profile, Level 4.1, 1920x1080 (16:9), 24.000 fps
Аудио #1: Русский Dolby Digital 5.1, 48 kHz 640 kbps [Не требуется]
Скриншоты
Изображение
Изображение
Изображение
Изображение
Изображение
Свернуть

Mi
Format : BDAV
Format/Info : Blu-ray Video
File size : 17.4 GiB
Duration : 2h 37mn
Overall bit rate : 15.9 Mbps
Maximum Overall bit rate : 35.5 Mbps

Video
ID : 4113 (0x1011)
Menu ID : 1 (0x1)
Format : AVC
Format/Info : Advanced Video Codec
Format profile : High@L4.1
Format settings, CABAC : Yes
Format settings, ReFrames : 4 frames
Codec ID : 27
Duration : 2h 37mn
Bit rate mode : Variable
Bit rate : 14.6 Mbps
Maximum bit rate : 25.0 Mbps
Width : 1 920 pixels
Height : 1 080 pixels
Display aspect ratio : 16:9
Frame rate : 24.000 fps
Standard : NTSC
Color space : YUV
Chroma subsampling : 4:2:0
Bit depth : 8 bits
Scan type : Progressive
Bits/(Pixel*Frame) : 0.293
Stream size : 16.0 GiB (92%)
Color primaries : BT.709-5, BT.1361, IEC 61966-2-4, SMPTE RP177
Transfer characteristics : BT.709-5, BT.1361
Matrix coefficients : BT.709-5, BT.1361, IEC 61966-2-4 709, SMPTE RP177

Audio
ID : 4352 (0x1100)
Menu ID : 1 (0x1)
Format : AC-3
Format/Info : Audio Coding 3
Mode extension : CM (complete main)
Codec ID : 129
Duration : 2h 37mn
Bit rate mode : Constant
Bit rate : 640 Kbps
Channel(s) : 6 channels
Channel positions : Front: L C R, Side: L R, LFE
Sampling rate : 48.0 KHz
Bit depth : 16 bits
Compression mode : Lossy
Stream size : 719 MiB (4%)
Language : Russian

Свернуть
Не в сети
Профиль  
 Добавлено: 2012-12-02 19:43 (спустя 1 год 4 месяца)
Стаж: 8 лет 5 месяцев
Сообщений: 17
А чего такая скорость раздачи несерьёзная при таком объеме данных?! ср. 50 кб/с
Не в сети
Профиль  
Начать новую темуОтветить на тему  [ Сообщений: 2 ] 
Вы не можете начинать темы
Вы не можете отвечать на сообщения
Вы не можете редактировать свои сообщения
Вы не можете удалять свои сообщения