Правила форума

Здесь находятся раздачи, на которых не было полного источника (сида) более месяца.
Вы можете вернуть релиз в соответствующий раздел, для этого напишите нам в специальной теме и встаньте на раздачу.
Новые релизы, повторяющие релизы в архиве, повторами не считаются.
Начать новую темуОтветить на тему  [ 1 сообщение ] 
Сообщения
 Добавлено: 2011-07-01 21:19
Аватара пользователя
Стаж: 5 лет 6 месяцев
Возраст: 30
Сообщений: 353
Спасибок: 7455
Увидимся в сентябре / See You in September

Изображение


Год выпуска: 2010
Страна: США (Steadfast Productions)
Слоган: «Fear of Commitment meet Fear of Abandonment...»
Жанр: мелодрама, комедия
Продолжительность: 01:26:53
Перевод: Профессиональный (многоголосый закадровый) + Оригинальная звуковая дорожка + Профессиональный (многоголосый закадровый)
Субтитры: Русские

Режиссёр: Тамара Тюни / Tamara Tunie
Сценарист: Джо Цилибрасе, Дженнифер Малони, Виктория Ринальди
Продюсер: Джо Цилибрасе, Дженнифер Малони, Тамара Тюни
Оператор: Харлэн Босмаджян

В ролях: Вупи Голдберг, Майкл Рисполи, Кристофер Зибер, Джеймс МакДэниэл, Линдси Крафт

Описание: Линдси (Эстелла Уоррен) - успешный продюсер рекламных роликов, но, как часто бывает, ее личная жизнь не ладится. За ней ухаживают хорошие ,милые мужчины и даже зовут ее замуж, но она чувствует , что все они - не ее половинка. Только сеансы психоаналитика (Вупи Голдберг) помогают ей. Без них она как без рук! И вот ее врач заявляет, что уезжает в отпуск на все лето. Увидимся в сентябре - говорит она ей. Линдси расстроена, но ей в голову приходит гениальная идея - собрать таких же, как она людей с проблемами в личной жизни и устроить сеанс психотерапии. На объявление откликаются самые разные люди и в том числе два разбойника с большими пистолетами, которые решают ограбить всех присутствующих. Ведь, как известно, проблемы бывают только у богатых, и на этом сборище явно будет, чем поживиться. Так и вышло. Добыча удалась на славу и, связав всех участников сеанса групповой терапии, бандиты удаляются, а жертвы остаются сидеть связанными и решать свои проблемы. И, как ни странно, им это удается. Коллектив настолько сплачивается, что, выйдя на свободу, они, помогают друг другу найти свое счастье.

Доп.информация: Смотрите на DVD
Бюджет: $2 500 000

Изображение Изображение Изображение

Качество: DVD5 R5
Формат: DVD Video
Видео кодек: MPEG2
Аудио кодек: AC3 (Dolby Digital)
Видео: PAL 16:9 (720x576(0.457)) MPEG Video,25,000 кадр/сек, 4735 Кбит/сек
Аудио #1: Russian (Dolby AC3, 6 ch) 384 Кбит/сек, 48,0 КГц [Профессиональный (многоголосый закадровый)]
Аудио #2: English (Dolby AC3, 6 ch) 384 Кбит/сек, 48,0 КГц [Оригинальная звуковая дорожка]
Аудио #3: Russian (Dolby AC3, 2 ch) 192 Кбит/сек, 48,0 КГц [Профессиональный (многоголосый закадровый)]
Субтитры: Русские

"DVDInfo"
Title: F
Size: 4.24 Gb ( 4 449 608 KBytes ) - DVD-5
Enabled regions: 1, 2, 3, 4, 5, 6, 7, 8

VTS_01 :
Play Length: 01:26:53
Video: PAL 16:9 (720x576) VBR, Auto Pan&Scan
Audio:
Russian (Dolby AC3, 6 ch)
Russian (Dolby AC3, 2 ch)
English (Dolby AC3, 6 ch)
Subtitles:
Russian

VTS_02 :
Play Length: 00:00:11
Video: PAL 16:9 (720x576) VBR, Auto Pan&Scan
Audio:
Russian (Dolby AC3, 2 ch)

VTS_03 :
Play Length: 00:00:17
Video: PAL 4:3 (720x576) VBR
Audio:
Russian (Dolby AC3, 2 ch)

VTS_04 :
Play Length: 00:05:38
Video: PAL 4:3 (720x576) VBR
Audio:
Russian (Dolby AC3, 2 ch)

VTS_05 :
Play Length: 00:04:15
Video: PAL 16:9 (720x576) VBR, Auto Pan&Scan
Audio:
Russian (Dolby AC3, 2 ch)
Свернуть

"MediaInfo"
Общее
Полное имя : E:\Новинки 2011\Uvidimsja.v.sentjabre.2010.DVD5\VIDEO_TS\VTS_01_1.VOB
Формат : MPEG-PS
Размер файла : 1024 Мбайт
Продолжительность : 24 м.
Общий поток : 5811 Кбит/сек
Библиотека кодирования : encoded by TMPGEnc (ver. 2.524.63.181)

Видео
Идентификатор : 224 (0xE0)
Формат : MPEG Video
Версия формата : Version 2
Профиль формата : Main@Main
Параметр BVOP формата : Да
Параметр матрицы формата : Выборочная
Продолжительность : 24 м.
Вид битрейта : Переменный
Битрейт : 4735 Кбит/сек
Ширина : 720 пикс.
Высота : 576 пикс.
Соотношение сторон : 16:9
Частота кадров : 25,000 кадр/сек
Стандарт вещания : PAL
Цветовое пространство : YUV
Подвыборка цветности : 4:2:0
Битовая глубина : 8 бит
Метод сжатия : С потерями
Бит/(Пиксели*Кадры) : 0.457
Размер потока : 834 Мбайт (81%)
Библиотека кодирования : TMPGEnc 2.524.63.181

Аудио #1
Идентификатор : 189 (0xBD)-128 (0x80)
Формат : AC-3
Формат/Информация : Audio Coding 3
Расширение режима : CM (complete main)
Режим смешивания : DVD-Video
Продолжительность : 24 м.
Вид битрейта : Постоянный
Битрейт : 384 Кбит/сек
Каналы : 6 каналов
Расположение каналов : Front: L C R, Side: L R, LFE
Частота : 48,0 КГц
Битовая глубина : 16 бит
Метод сжатия : С потерями
Задержка видео : 6 мс.
Размер потока : 67,6 Мбайт (7%)

Аудио #2
Идентификатор : 189 (0xBD)-129 (0x81)
Формат : AC-3
Формат/Информация : Audio Coding 3
Расширение режима : CM (complete main)
Режим смешивания : DVD-Video
Продолжительность : 24 м.
Вид битрейта : Постоянный
Битрейт : 192 Кбит/сек
Каналы : 2 канала
Расположение каналов : Front: L R
Частота : 48,0 КГц
Битовая глубина : 16 бит
Метод сжатия : С потерями
Задержка видео : 6 мс.
Размер потока : 33,8 Мбайт (3%)

Аудио #3
Идентификатор : 189 (0xBD)-130 (0x82)
Формат : AC-3
Формат/Информация : Audio Coding 3
Расширение режима : CM (complete main)
Режим смешивания : DVD-Video
Продолжительность : 24 м.
Вид битрейта : Постоянный
Битрейт : 384 Кбит/сек
Каналы : 6 каналов
Расположение каналов : Front: L C R, Side: L R, LFE
Частота : 48,0 КГц
Битовая глубина : 16 бит
Метод сжатия : С потерями
Задержка видео : 6 мс.
Размер потока : 67,6 Мбайт (7%)

Текст
Идентификатор : 189 (0xBD)-32 (0x20)
Формат : RLE
Формат/Информация : Run-length encoding
Режим смешивания : DVD-Video
Продолжительность : 24 м.
Задержка видео : 926 мс.

Свернуть

Скриншоты
Скриншоты меню
Изображение
Изображение
Изображение
Свернуть
Изображение
Изображение
Изображение
Изображение
Изображение
Изображение
Изображение
Изображение
Свернуть


Изображение Изображение
Не в сети
Профиль  
Начать новую темуОтветить на тему  [ 1 сообщение ] 
Вы не можете начинать темы
Вы не можете отвечать на сообщения
Вы не можете редактировать свои сообщения
Вы не можете удалять свои сообщения