Правила форума

Здесь находятся раздачи, на которых не было полного источника (сида) более месяца.
Вы можете вернуть релиз в соответствующий раздел, для этого напишите нам в специальной теме и встаньте на раздачу.
Новые релизы, повторяющие релизы в архиве, повторами не считаются.
Начать новую темуОтветить на тему  [ Сообщений: 3 ] 
Сообщения
 Добавлено: 2013-12-21 10:41
Аватара пользователя
Стаж: 3 года 6 месяцев
Сообщений: 175
Спасибок: 4255
Лайков: 29
Va-банк / Runner Runner

«Игра стоит свеч»

Изображение


Год выпуска: 2013
Страна: США (Appian Way, Double Feature Films, New Regency Pictures, Stone Village Productions)
Жанр: Триллер, драма, криминал
Продолжительность: 01:31:32
Перевод: Профессиональный (дубляж)[Чистый звук]
Субтитры: Английские

Режиссёр: Брэд Фурман
Продюсер: Леонардо ДиКаприо, Дженнифер Дэвиссон, Брайан Коппельман
В ролях: Джастин Тимберлэйк, Бен Аффлек, Джемма Артертон, Энтони Маки, Майкл Эспер, Оливер Купер, Кристиан Джордж, Юл Васкез, Джон Хёрд, Джеймс Молина
Описание: Чтобы оплачивать учёбу в колледже, Ричи погружается в мир азартных игр онлайн. Когда удача изменяет ему, он отправляется на Коста-Рику, чтобы помериться силами с настоящим асом игрового бизнеса. Тот видит в Ричи родственную душу и вводит его в свою игру. Но когда степень опасности возрастает, а ставки достигают невероятных высот, Ричи вдруг отчётливо понимает, что его новый босс вот-вот совершит непоправимое, и пытается поменяться с ним ролями.
Доп.информация: Сохранены оригинальные чаптеры как на Blu-Ray.
Рейтинг MPAA: Рейтинг R (Подростки до 17 лет допускаются на фильм только в сопровождении одного из родителей)
Бюджет: $30 000 000
Изображение
Изображение

Качество: BDRip 1080p
Формат: MKV
Видео кодек: AVC, H.264
Аудио кодек: AC3 (Dolby Digital), DTS
Видео: 1920x800, 23.976 fps, 8745 Kbps, MPEG-4 AVC, 10.2 Мбит/с
Аудио #1: AC3, 48 kHz, 6 ch, 384 Kbps [Russian]
Аудио #2: DTS, 48 kHz, 6 ch, 1510 Kbps [English]
Скриншоты
Изображение
Изображение
Изображение
Свернуть

MediaInfo
General
Unique ID : 190787000496433172024526252008816919809 (0x8F883D5EA80262E6B12B82C005BE4501)
Complete name : F:\ФИЛЬМЫ\Va-bank.2013.x264.BDRip(1080p).mkv
Format : Matroska
Format version : Version 4 / Version 2
File size : 7.86 GiB
Duration : 1h 31mn
Overall bit rate : 12.3 Mbps
Encoded date : UTC 2010-02-22 21:41:31
Writing application : mkvmerge v5.9.0 ('On The Loose') built on Dec 9 2012 15:37:01
Writing library : libebml v1.3.0 + libmatroska v1.4.0

Video
ID : 1
Format : AVC
Format/Info : Advanced Video Codec
Format profile : High@L4.1
Format settings, CABAC : Yes
Format settings, ReFrames : 5 frames
Codec ID : V_MPEG4/ISO/AVC
Duration : 1h 31mn
Bit rate : 10.2 Mbps
Width : 1 920 pixels
Height : 800 pixels
Display aspect ratio : 2.40:1
Frame rate mode : Constant
Frame rate : 23.976 fps
Color space : YUV
Chroma subsampling : 4:2:0
Bit depth : 8 bits
Scan type : Progressive
Bits/(Pixel*Frame) : 0.276
Stream size : 6.50 GiB (83%)
Language : English
Default : Yes
Forced : Yes

Audio #1
ID : 2
Format : AC-3
Format/Info : Audio Coding 3
Mode extension : CM (complete main)
Format settings, Endianness : Big
Codec ID : A_AC3
Duration : 1h 31mn
Bit rate mode : Constant
Bit rate : 384 Kbps
Channel(s) : 6 channels
Channel positions : Front: L C R, Side: L R, LFE
Sampling rate : 48.0 KHz
Bit depth : 16 bits
Compression mode : Lossy
Stream size : 251 MiB (3%)
Language : Russian
Default : Yes
Forced : Yes

Audio #2
ID : 3
Format : DTS
Format/Info : Digital Theater Systems
Mode : 16
Format settings, Endianness : Big
Codec ID : A_DTS
Duration : 1h 31mn
Bit rate mode : Constant
Bit rate : 1 509 Kbps
Channel(s) : 6 channels
Channel positions : Front: L C R, Side: L R, LFE
Sampling rate : 48.0 KHz
Bit depth : 24 bits
Compression mode : Lossy
Stream size : 988 MiB (12%)
Language : English
Default : No
Forced : No

Text
ID : 4
Format : UTF-8
Codec ID : S_TEXT/UTF8
Codec ID/Info : UTF-8 Plain Text
Language : English
Default : No
Forced : No

Menu
00:00:00.000 : en:00:00:00.000
00:03:08.814 : en:00:03:08.814
00:05:47.973 : en:00:05:47.973
00:08:43.857 : en:00:08:43.857
00:11:16.384 : en:00:11:16.384
00:13:34.647 : en:00:13:34.647
00:15:13.913 : en:00:15:13.913
00:16:55.765 : en:00:16:55.765
00:19:46.602 : en:00:19:46.602
00:24:24.505 : en:00:24:24.505
00:27:07.334 : en:00:27:07.334
00:31:01.943 : en:00:31:01.943
00:32:59.811 : en:00:32:59.811
00:36:30.605 : en:00:36:30.605
00:38:40.026 : en:00:38:40.026
00:43:36.906 : en:00:43:36.906
00:46:38.087 : en:00:46:38.087
00:48:37.706 : en:00:48:37.706
00:53:03.555 : en:00:53:03.555
00:54:38.609 : en:00:54:38.609
00:57:18.644 : en:00:57:18.644
01:00:38.885 : en:01:00:38.885
01:03:17.669 : en:01:03:17.669
01:08:48.833 : en:01:08:48.833
01:13:04.797 : en:01:13:04.797
01:16:45.935 : en:01:16:45.935
01:21:22.961 : en:01:21:22.961
01:25:32.502 : en:01:25:32.502
Свернуть
Не в сети
Профиль  
 Добавлено: 2013-12-22 21:30 (спустя 1 день 10 часов)
Стаж: 8 лет 1 месяц
Сообщений: 21
хороший фильм.качество на высоте!
Не в сети
Профиль  
 Добавлено: 2014-02-07 11:43 (спустя 1 месяц 15 дней)
Аватара пользователя
Стаж: 9 лет 1 месяц
Сообщений: 7912
Спасибок: 122094
Лайков: 1190
http://nnportal.org/tracker/zarubejnoe- ... 24779.html
Не в сети
Профиль  
Начать новую темуОтветить на тему  [ Сообщений: 3 ] 
Вы не можете начинать темы
Вы не можете отвечать на сообщения
Вы не можете редактировать свои сообщения
Вы не можете удалять свои сообщения