Правила форума

Здесь находятся раздачи, на которых не было полного источника (сида) более месяца.
Вы можете вернуть релиз в соответствующий раздел, для этого напишите нам в специальной теме и встаньте на раздачу.
Новые релизы, повторяющие релизы в архиве, повторами не считаются.
Начать новую темуОтветить на тему  [ 1 сообщение ] 
Сообщения
 Добавлено: 2013-12-17 23:40
Аватара пользователя
Стаж: 7 лет 2 месяца
Сообщений: 7167
Спасибок: 81994
Лайков: 2438
Va-банк / Runner Runner

Изображение


Год выпуска: 2013
Страна: США
Слоган: «Игра стоит свеч»
Жанр: триллер, драма, криминал
Продолжительность: 01:31:39
Перевод: Профессиональный (дубляж) + Оригинальная звуковая дорожка + Профессиональный (многоголосый закадровый)
Субтитры: Английские, Испанские, Французские, Португальские

Режиссёр: Брэд Фурман
В ролях: Джастин Тимберлэйк, Бен Аффлек, Джемма Артертон, Энтони Маки, Майкл Эспер, Оливер Купер, Кристиан Джордж, Юл Васкез, Джон Хёрд, Джеймс Молина
Описание: Чтобы оплачивать учёбу в колледже, Ричи погружается в мир азартных игр онлайн. Когда удача изменяет ему, он отправляется на Коста-Рику, чтобы помериться силами с настоящим асом игрового бизнеса. Тот видит в Ричи родственную душу и вводит его в свою игру. Но когда степень опасности возрастает, а ставки достигают невероятных высот, Ричи вдруг отчётливо понимает, что его новый босс вот-вот совершит непоправимое, и пытается поменяться с ним ролями.
Изображение

Качество: WEB-DL 720p
Формат: MKV
Видео кодек: H264 (AVC)
Аудио кодек: MP3 (MPEG1 Layer 3), AC3, AAC
Видео: 1 280x532, 23.976 fps, 4 000 Kbps
Аудио #1: 48.0 KHz, 2 ch, 128 Kbps [Профессиональный (дубляж)] Звук с CAMRip
Аудио #2: 48.0 KHz, 6 ch, 384 Kbps [Оригинальная звуковая дорожка]
Аудио #3: 48.0 KHz, 2 ch, 160 Kbps [Профессиональный (многоголосый закадровый)] Испанский
Субтитры: Английские, Испанские, Французские, Португальские
Изображение
Скриншоты
Изображение

Изображение

Изображение

Изображение

Изображение

Изображение
Свернуть
MI
General
Unique ID : 196221790836368370413735859539367518033 (0x939EF138B13742E0BB0B216B90295F51)
Complete name : Va-банк.2013.mkv
Format : Matroska
Format version : Version 4 / Version 2
File size : 3.14 GiB
Duration : 1h 31mn
Overall bit rate : 4 906 Kbps
Encoded date : UTC 2013-12-17 16:01:09
Writing application : mkvmerge v6.1.0 ('Old Devil') built on Mar 4 2013 09:10:42
Writing library : libebml v1.3.0 + libmatroska v1.4.0

Video
ID : 1
Format : AVC
Format/Info : Advanced Video Codec
Format profile : Main@L3.1
Format settings, CABAC : No
Format settings, ReFrames : 2 frames
Codec ID : V_MPEG4/ISO/AVC
Duration : 1h 31mn
Width : 1 280 pixels
Height : 532 pixels
Display aspect ratio : 2.40:1
Frame rate : 23.976 fps
Color space : YUV
Chroma subsampling : 4:2:0
Bit depth : 8 bits
Scan type : Progressive
Language : English
Default : Yes
Forced : No
Color primaries : BT.709-5, BT.1361, IEC 61966-2-4, SMPTE RP177
Transfer characteristics : BT.709-5, BT.1361
Matrix coefficients : BT.709-5, BT.1361, IEC 61966-2-4 709, SMPTE RP177

Audio #1
ID : 2
Format : MPEG Audio
Format version : Version 1
Format profile : Layer 3
Mode : Joint stereo
Mode extension : MS Stereo
Codec ID : A_MPEG/L3
Codec ID/Hint : MP3
Duration : 1h 31mn
Bit rate mode : Constant
Bit rate : 128 Kbps
Channel(s) : 2 channels
Sampling rate : 48.0 KHz
Compression mode : Lossy
Stream size : 83.9 MiB (3%)
Language : Russian
Default : Yes
Forced : No

Audio #2
ID : 3
Format : AC-3
Format/Info : Audio Coding 3
Mode extension : CM (complete main)
Format settings, Endianness : Big
Codec ID : A_AC3
Duration : 1h 31mn
Bit rate mode : Constant
Bit rate : 384 Kbps
Channel(s) : 6 channels
Channel positions : Front: L C R, Side: L R, LFE
Sampling rate : 48.0 KHz
Bit depth : 16 bits
Compression mode : Lossy
Stream size : 252 MiB (8%)
Language : English
Default : No
Forced : No

Audio #3
ID : 4
Format : AAC
Format/Info : Advanced Audio Codec
Format profile : LC
Codec ID : A_AAC
Duration : 1h 31mn
Channel(s) : 2 channels
Channel positions : Front: L R
Sampling rate : 48.0 KHz
Compression mode : Lossy
Language : Spanish
Default : No
Forced : No

Text #1
ID : 5
Format : UTF-8
Codec ID : S_TEXT/UTF8
Codec ID/Info : UTF-8 Plain Text
Language : English
Default : No
Forced : No

Text #2
ID : 6
Format : UTF-8
Codec ID : S_TEXT/UTF8
Codec ID/Info : UTF-8 Plain Text
Language : Spanish
Default : No
Forced : No

Text #3
ID : 7
Format : UTF-8
Codec ID : S_TEXT/UTF8
Codec ID/Info : UTF-8 Plain Text
Language : French
Default : No
Forced : No

Text #4
ID : 8
Format : UTF-8
Codec ID : S_TEXT/UTF8
Codec ID/Info : UTF-8 Plain Text
Language : Portuguese
Default : No
Forced : No

Menu
00:00:00.000 : en:1
00:03:07.000 : en:2
00:05:46.000 : en:3
00:08:42.000 : en:4
00:11:14.000 : en:5
00:13:32.000 : en:6
00:15:13.000 : en:7
00:16:53.000 : en:8
00:19:44.000 : en:9
00:24:22.000 : en:10
00:27:04.000 : en:11
00:30:59.000 : en:12
00:32:56.000 : en:13
00:36:27.000 : en:14
00:38:36.000 : en:15
00:43:33.000 : en:16
00:46:34.000 : en:17
00:48:33.000 : en:18
00:52:59.000 : en:19
00:54:34.000 : en:20
00:57:14.000 : en:21
01:00:34.000 : en:22
01:03:12.000 : en:23
01:08:44.000 : en:24
01:12:59.000 : en:25
01:16:40.000 : en:26
01:21:17.000 : en:27
01:25:26.000 : en:28
Свернуть
 zima-letoru и rotametr нравится это.
Не в сети
Профиль  
Начать новую темуОтветить на тему  [ 1 сообщение ] 
Вы не можете начинать темы
Вы не можете отвечать на сообщения
Вы не можете редактировать свои сообщения
Вы не можете удалять свои сообщения