Правила форума

Здесь находятся раздачи, на которых не было полного источника (сида) более месяца.
Вы можете вернуть релиз в соответствующий раздел, для этого напишите нам в специальной теме и встаньте на раздачу.
Новые релизы, повторяющие релизы в архиве, повторами не считаются.
Начать новую темуОтветить на тему  [ 1 сообщение ] 
Сообщения
 Добавлено: 2011-05-15 11:15
Top-seeder
Аватара пользователя
Стаж: 9 лет
Сообщений: 1399
Спасибок: 28651
Лайков: 8
Вампиры / Vampires

Изображение


Год выпуска: 1998
Страна: США
Жанр: Ужасы
Продолжительность: 1:47:47
Перевод: Профессиональный (дубляж)

Режиссёр: Джон Карпентер
В ролях: Джеймс Вудс, Дэниэл Болдуин, Шерил Ли, Томас Йен Гриффит, Максимилиан Шелл, Тим Гини, Марк Бун Джуниор, Грегори Сьерра, Кэри-Хироюки Тагава, Томас Розалес мл.
Описание: По заданию Ватикана Джек Кроу, потомственный охотник на вампиров, и его друг, и напарник Монтойя безжалостно расправляются с вурдалаками, но их главная цель — особо опасный вампир Валек, уроженец Праги, 1300-го года рождения. В охоте на вампира Джеку и Монтойе помогает молодой священник, вооруженный знаниями из древних трактатов о кровососах.

Валек ищет в Штатах древнее распятие, обладающее особой силой. Как известно, вампиры боятся солнечных лучей, убивающих их. Проведение магического обряда с распятием позволит Валеку не бояться солнечного света и сделает его всемогущим. Охотники за вампирами должны поспешить, пока Валек еще уязвим, пока его еще можно убить…
Изображение 6.891

Тип релиза: BDRip
Контейнер: MKV
Видео кодек: H.264
Аудио кодек: AC3, DTS
Видео: 1280x528 | 4296 kbps | 24 fps
Аудио 1: Russian | AC3 | 5.1 | 48 kHz | 384 kbps (дубляж)
Аудио 2: English | DTS | 5.1 | 48 kHz | 1.5 Mbps
Субтитры: Русские, Английские (SRT)

Скриншоты
Изображение
Изображение
Изображение
Изображение
Свернуть


MediaInfo
General
Complete name : Vampires.Uncut.1998.720p.BluRay.x264-SiNNERS.Rus.mkv
Format : Matroska
File size : 4.66 GiB
Duration : 1h 47mn
Overall bit rate : 6 189 Kbps
Encoded date : UTC 2010-11-27 01:53:05
Writing application : mkvmerge v3.4.0 ('Rapunzel') built on May 15 2010 09:38:20
Writing library : libebml v0.8.0 + libmatroska v0.9.0

Video
ID : 1
Format : AVC
Format/Info : Advanced Video Codec
Format profile : High@L4.1
Format settings, CABAC : Yes
Format settings, ReFrames : 5 frames
Muxing mode : Container profile=Unknown@4.1
Codec ID : V_MPEG4/ISO/AVC
Duration : 1h 47mn
Bit rate : 4 296 Kbps
Width : 1 280 pixels
Height : 528 pixels
Display aspect ratio : 2.40:1
Frame rate : 24.000 fps
Color space : YUV
Chroma subsampling : 4:2:0
Bit depth : 8 bits
Scan type : Progressive
Bits/(Pixel*Frame) : 0.265
Stream size : 3.14 GiB (67%)
Writing library : x264 core 108 r1790 8eaf8a6
Encoding settings : cabac=1 / ref=5 / deblock=1:0:0 / analyse=0x3:0x113 / me=umh / subme=7 / psy=1 / psy_rd=1.00:0.00 / mixed_ref=1 / me_range=16 / chroma_me=1 / trellis=1 / 8x8dct=1 / cqm=0 / deadzone=21,11 / fast_pskip=0 / chroma_qp_offset=-2 / threads=12 / sliced_threads=0 / nr=0 / decimate=1 / interlaced=0 / constrained_intra=0 / bframes=3 / b_pyramid=2 / b_adapt=1 / b_bias=0 / direct=1 / weightb=1 / open_gop=0 / weightp=2 / keyint=250 / keyint_min=24 / scenecut=40 / intra_refresh=0 / rc_lookahead=40 / rc=2pass / mbtree=1 / bitrate=4296 / ratetol=1.0 / qcomp=0.60 / qpmin=10 / qpmax=51 / qpstep=4 / cplxblur=20.0 / qblur=0.5 / ip_ratio=1.40 / aq=1:1.00
Language : English

Audio #1
ID : 2
Format : AC-3
Format/Info : Audio Coding 3
Mode extension : CM (complete main)
Codec ID : A_AC3
Duration : 1h 47mn
Bit rate mode : Constant
Bit rate : 384 Kbps
Channel(s) : 6 channels
Channel positions : Front: L C R, Side: L R, LFE
Sampling rate : 48.0 KHz
Bit depth : 16 bits
Stream size : 296 MiB (6%)
Title : AC3 5.1 384 kbps (R5 Dub)
Language : Russian

Audio #2
ID : 3
Format : DTS
Format/Info : Digital Theater Systems
Codec ID : A_DTS
Duration : 1h 47mn
Bit rate mode : Constant
Bit rate : 1 510 Kbps
Channel(s) : 6 channels
Channel positions : Front: L C R, Side: L R, LFE
Sampling rate : 48.0 KHz
Bit depth : 24 bits
Stream size : 1.14 GiB (24%)
Title : DTS 5.1 1.5 Mbps
Language : English

Text #1
ID : 4
Format : UTF-8
Codec ID : S_TEXT/UTF8
Codec ID/Info : UTF-8 Plain Text
Language : Russian

Text #2
ID : 5
Format : UTF-8
Codec ID : S_TEXT/UTF8
Codec ID/Info : UTF-8 Plain Text
Language : English
Свернуть
Не в сети
Профиль  
Начать новую темуОтветить на тему  [ 1 сообщение ] 
Вы не можете начинать темы
Вы не можете отвечать на сообщения
Вы не можете редактировать свои сообщения
Вы не можете удалять свои сообщения