Правила форума

Здесь находятся раздачи, на которых не было полного источника (сида) более месяца.
Вы можете вернуть релиз в соответствующий раздел, для этого напишите нам в специальной теме и встаньте на раздачу.
Новые релизы, повторяющие релизы в архиве, повторами не считаются.
Начать новую темуОтветить на тему  [ Сообщений: 8 ] 
Сообщения
 Добавлено: 2011-07-31 13:32
Книголюб
Аватара пользователя
Стаж: 7 лет 2 месяца
Сообщений: 2823
Спасибок: 48823
Лайков: 73
Вечерний экспресс «Сансет Лимитед» (Ограниченный закат)
The Sunset Limited

Изображение


Год выпуска: 2010
Страна: США
Слоган: «Nothing is ever black or white.»
Жанр: драма
Продолжительность: 01:27:45
Перевод: Любительский (одноголосый закадровый)

Режиссёр: Томми Ли Джонс
В ролях: Томми Ли Джонс, Сэмюэл Л. Джексон
Описание: Фильм расскажет о человеке, который спасает другого от броска под поезд в Гарлеме. Двое людей с разным прошлым начинают после этого общаться и обмениваться идеологиями относительно того, насколько важна в принципе человеческая жизнь
Мировая премьера: 12 февраля 2011
Изображение 7.604 839

Качество: BDRip
Формат: MKV
Видео кодек: AVC
Аудио кодек: AC3 (Dolby Digital)
Видео: 1280x704, 23.976fps, x264, 5000 kbps 0.231Bits/Pixel
Аудио #1: (RUS) AC-3 5.1, 48 kHz, 16 bits, 384 kbps
Аудио #2: (RUS) AC-3 5.1, 48 kHz, 16 bits, 384 kbps [VO, Артемьев]
Аудио #3: (ENG) AC-3 5.1, 48 kHz, 16 bits, 384 kbps

MediaInfo
General
Unique ID : 238759880100344680496014140174276776130 (0xB39F7AF257BA8E39B623E5F2839450C2)
Complete name : J:\The.Sunset.Limited.mkv
Format : Matroska
File size : 3.91 GiB
Duration : 1h 30mn
Overall bit rate : 6 155 Kbps
Encoded date : UTC 2011-07-16 05:05:19
Writing application : mkvmerge v4.9.1 ('Ich will') сборка от Jul 11 2011 23:53:15
Writing library : libebml v1.2.1 + libmatroska v1.1.1

Video
ID : 1
Format : AVC
Format/Info : Advanced Video Codec
Format profile : High@L3.1
Format settings, CABAC : Yes
Format settings, ReFrames : 4 frames
Codec ID : V_MPEG4/ISO/AVC
Duration : 1h 30mn
Bit rate : 5 000 Kbps
Width : 1 280 pixels
Height : 704 pixels
Display aspect ratio : 16:9
Original display aspect ratio : 1.850
Frame rate : 23.976 fps
Color space : YUV
Chroma subsampling : 4:2:0
Bit depth : 8 bits
Scan type : Progressive
Bits/(Pixel*Frame) : 0.231
Stream size : 3.10 GiB (79%)
Writing library : x264 core 112 r1867 22bfd31
Encoding settings : cabac=1 / ref=3 / deblock=1:-1:-1 / analyse=0x3:0x113 / me=hex / subme=7 / psy=1 / psy_rd=1.00:0.00 / mixed_ref=1 / me_range=16 / chroma_me=1 / trellis=1 / 8x8dct=1 / cqm=0 / deadzone=21,11 / fast_pskip=1 / chroma_qp_offset=-2 / threads=3 / sliced_threads=0 / nr=0 / decimate=1 / interlaced=0 / constrained_intra=0 / bframes=3 / b_pyramid=2 / b_adapt=1 / b_bias=0 / direct=1 / weightb=1 / open_gop=0 / weightp=2 / keyint=250 / keyint_min=23 / scenecut=40 / intra_refresh=0 / rc_lookahead=40 / rc=2pass / mbtree=1 / bitrate=5000 / ratetol=1.0 / qcomp=0.60 / qpmin=10 / qpmax=51 / qpstep=4 / cplxblur=20.0 / qblur=0.5 / ip_ratio=1.40 / aq=1:1.00
Language : English

Audio #1
ID : 2
Format : AC-3
Format/Info : Audio Coding 3
Mode extension : CM (complete main)
Codec ID : A_AC3
Duration : 1h 30mn
Bit rate mode : Constant
Bit rate : 384 Kbps
Channel(s) : 6 channels
Channel positions : Front: L C R, Side: L R, LFE
Sampling rate : 48.0 KHz
Bit depth : 16 bits
Compression mode : Lossy
Stream size : 250 MiB (6%)
Language : Russian

Audio #2
ID : 3
Format : AC-3
Format/Info : Audio Coding 3
Mode extension : CM (complete main)
Codec ID : A_AC3
Duration : 1h 30mn
Bit rate mode : Constant
Bit rate : 384 Kbps
Channel(s) : 6 channels
Channel positions : Front: L C R, Side: L R, LFE
Sampling rate : 48.0 KHz
Bit depth : 16 bits
Compression mode : Lossy
Stream size : 250 MiB (6%)
Language : Russian

Audio #3
ID : 4
Format : AC-3
Format/Info : Audio Coding 3
Mode extension : CM (complete main)
Codec ID : A_AC3
Duration : 1h 30mn
Bit rate mode : Constant
Bit rate : 384 Kbps
Channel(s) : 6 channels
Channel positions : Front: L C R, Side: L R, LFE
Sampling rate : 48.0 KHz
Bit depth : 16 bits
Compression mode : Lossy
Stream size : 250 MiB (6%)
Language : English


Свернуть

Скриншоты
Изображение
Изображение
Изображение
Свернуть


Последний раз редактировалось coldun 2011-08-01 17:54, всего редактировалось 2 раз(а).
Не в сети
Профиль  
 Добавлено: 2011-07-31 14:55 (спустя 1 час 23 минуты)
Аватара пользователя
Стаж: 8 лет 3 месяца
Возраст: 43
Сообщений: 3290
Спасибок: 21012
Лайков: 3
coldun
Внимание: Для DVD и HD-разделов необходимы развернутые технические данные:
Для DVD: Отчет DVDInfo (под спойлером)
Для HD: Отчет BDInfo→ (после нажатия кнопки «scan bitrates» и окончания сканирования) или MediaInfo→ ( весь текст из режима view (вид) → text (текст).) (под спойлером)
Исправьте пожалуйста
Как все исправите, то сообщите пожалуйста в ЛС мне или любому модератору видео. Обязательно со ссылкой на релиз :)
_________________
Изображение
Не в сети
Профиль  
 Добавлено: 2011-07-31 15:06 (спустя 10 минут)
Модератор
Аватара пользователя
Стаж: 8 лет 1 месяц
Возраст: 20
Сообщений: 32130
Спасибок: 98563
Лайков: 80
а как это так, DVD в MKV ? :ps_ih:
Не в сети
Профиль  
 Добавлено: 2011-07-31 16:14 (спустя 1 час 8 минут)
Аватара пользователя
Стаж: 8 лет 3 месяца
Возраст: 43
Сообщений: 3290
Спасибок: 21012
Лайков: 3
в РВ есть недостаток, слетели все теги, связанные с БД-рипами, сам же видел наверно :(
_________________
Изображение
Не в сети
Профиль  
 Добавлено: 2011-07-31 16:16 (спустя 1 минута)
Модератор
Аватара пользователя
Стаж: 8 лет 1 месяц
Возраст: 20
Сообщений: 32130
Спасибок: 98563
Лайков: 80
Иванишко
нет, не видел, никогда не пользовался релиз-визардами тут :-D
Не в сети
Профиль  
 Добавлено: 2011-07-31 16:51 (спустя 35 минут)
Top-seeder
Аватара пользователя
Стаж: 8 лет 1 месяц
Возраст: 26
Сообщений: 17415
Спасибок: 316
Лайков: 45
фильм двух актеров? надо глянуть) особенно если Джексон свои волосы отрастил)
_________________
ИзображениеИзображение Изображение Взял смайл - ставь ©!
Cкрытый текст
Изображение
Свернуть
Не в сети
Профиль  
 Добавлено: 2011-07-31 22:35 (спустя 5 часов)
Руководитель релиз-группы
Аватара пользователя
Стаж: 9 лет 1 месяц
Возраст: 28
Сообщений: 4244
Спасибок: 31991
Лайков: 32

Костян236:

а как это так, DVD в MKV ?
Поправил, спасибо.
_________________
«you failed because you had the wrong dream...»
Не в сети
Профиль  
 Добавлено: 2011-08-01 17:55 (спустя 19 часов)
Книголюб
Аватара пользователя
Стаж: 7 лет 2 месяца
Сообщений: 2823
Спасибок: 48823
Лайков: 73

Иванишко:

coldun
Внимание: Для DVD и HD-разделов необходимы развернутые технические данные:
Для DVD: Отчет DVDInfo (под спойлером)
Для HD: Отчет BDInfo→ (после нажатия кнопки «scan bitrates» и окончания сканирования) или MediaInfo→ ( весь текст из режима view (вид) → text (текст).) (под спойлером)
Исправьте пожалуйста
Как все исправите, то сообщите пожалуйста в ЛС мне или любому модератору видео. Обязательно со ссылкой на релиз :)
Исправил
Не в сети
Профиль  
Начать новую темуОтветить на тему  [ Сообщений: 8 ] 
Вы не можете начинать темы
Вы не можете отвечать на сообщения
Вы не можете редактировать свои сообщения
Вы не можете удалять свои сообщения