Правила форума

Здесь находятся раздачи, на которых не было полного источника (сида) более месяца.
Вы можете вернуть релиз в соответствующий раздел, для этого напишите нам в специальной теме и встаньте на раздачу.
Новые релизы, повторяющие релизы в архиве, повторами не считаются.
Начать новую темуОтветить на тему  [ Сообщений: 5 ] 
Сообщения
 Добавлено: 2012-03-18 19:57
Инквизитор
Аватара пользователя
Стаж: 8 лет 8 месяцев
Сообщений: 3753
Спасибок: 28360
Лайков: 9
Изображение

Вечерний экспресс «Сансет Лимитед» / The Sunset Limited


Год выпуска: 2011
Страна: США
Слоган: «Nothing is ever black or white.»
Жанр: драма
Продолжительность: 01:30:55
Перевод: Оригинальный, Авторский (Сербин Юрий), Авторский (А.Артемьев)
Режиссер: Томми Ли Джонс
Сценарий: Кормак МакКарти
Продюсер: Барбара А. Холл, Томми Ли Джонс, Уэсли Оливер
Оператор: Пол Эллиот
Композитор: Марко Белтрами
В ролях: Сэмюэл Л. Джексон, Томми Ли Джонс

Описание: Фильм расскажет о человеке, который спасает другого от броска под поезд в Гарлеме. Двое людей с разным прошлым начинают после этого общаться и обмениваться идеологиями относительно того, насколько важна в принципе человеческая жизнь.
Изображение
Мировая премьера: 12 февраля 2011
Релиз, раздача группы: Изображение, Изображение
Качество: BDRip, 720p
Формат: Matroska
Видео: AVC; 1280x720 (16:9); 6162 Kbps; 23,976 fps; 0,279 bit/pixel
Аудио №1: Russian; DTS; 1509 Kbps; CBR; 6 ch; 24 bit
Аудио №2: Russian; DTS; 1509 Kbps; CBR; 6 ch; 24 bit
Аудио №3: DTS; 1509 Kbps; CBR; 6 ch; 24 bit

Субтитры №1: Russian
Субтитры №2: English

M.I.
Общее
Уникальный идентификатор                 : 183719870675282369573485888831236348156 (0x8A3728F7CECF18BDA678719B73A018FC)
Полное имя                               : K:\Фильмы\The.Sunset.Limited.2011.720p.BluRay.2xRus.Eng.HDCLUB.mkv
Формат                                   : Matroska
Версия формата                           : Version 2
Размер файла                             : 6,93 Гбайт
Продолжительность                        : 1 ч. 30 м.
Общий поток                              : 10,9 Мбит/сек
Название фильма                          : The Sunset Limited (2011) - Release for HDCLUB by doclogan
Дата кодирования                         : UTC 2012-03-17 16:35:48
Программа кодирования                    : mkvmerge v5.0.1 ('Es ist Sommer') built on Oct  9 2011 11:55:43
Библиотека кодирования                   : libebml v1.2.2 + libmatroska v1.3.0

Видео
Идентификатор                            : 1
Формат                                   : AVC
Формат/Информация                        : Advanced Video Codec
Профиль формата                          : High@L4.1
Параметр CABAC формата                   : Да
Параметр ReFrames формата                : 9 кадров
Идентификатор кодека                     : V_MPEG4/ISO/AVC
Продолжительность                        : 1 ч. 30 м.
Битрейт                                  : 6376 Кбит/сек
Ширина                                   : 1280 пикселей
Высота                                   : 720 пикселей
Соотношение сторон                       : 16:9
Частота кадров                           : 23,976 кадра/сек
Цветовое пространство                    : YUV
Субдискретизация насыщенности            : 4:2:0
Битовая глубина                          : 8 бит
Тип развёртки                            : Прогрессивная
Бит/(Пиксели*Кадры)                      : 0.289
Размер потока                            : 3,91 Гбайт (56%)
Заголовок                                : Release for HDCLUB by doclogan
Библиотека кодирования                   : x264 core 119 r2106 07efeb4
Настройки программы                      : cabac=1 / ref=9 / deblock=1:-3:-3 / analyse=0x3:0x113 / me=umh / subme=10 / psy=1 / psy_rd=1.05:0.10 / mixed_ref=1 / me_range=32 / chroma_me=1 / trellis=2 / 8x8dct=1 / cqm=2 / deadzone=21,11 / fast_pskip=0 / chroma_qp_offset=-2 / threads=12 / sliced_threads=0 / nr=0 / decimate=1 / interlaced=0 / bluray_compat=0 / constrained_intra=0 / bframes=6 / b_pyramid=2 / b_adapt=2 / b_bias=0 / direct=3 / weightb=1 / open_gop=0 / weightp=2 / keyint=250 / keyint_min=23 / scenecut=40 / intra_refresh=0 / rc_lookahead=40 / rc=2pass / mbtree=1 / bitrate=6376 / ratetol=1.0 / qcomp=0.60 / qpmin=1 / qpmax=63 / qpstep=4 / cplxblur=20.0 / qblur=0.5 / vbv_maxrate=40000 / vbv_bufsize=30000 / nal_hrd=none / ip_ratio=1.40 / aq=1:0.80
Язык                                     : English
Default                                  : Да
Forced                                   : Нет

Аудио #1
Идентификатор                            : 2
Формат                                   : DTS
Формат/Информация                        : Digital Theater Systems
Идентификатор кодека                     : A_DTS
Продолжительность                        : 1 ч. 30 м.
Вид битрейта                             : Постоянный
Битрейт                                  : 1510 Кбит/сек
Каналы                                   : 6 каналов
Расположение каналов                     : Front: L C R, Side: L R, LFE
Частота                                  : 48,0 КГц
Битовая глубина                          : 24 бит
Метод сжатия                             : С потерями
Размер потока                            : 982 Мбайт (14%)
Заголовок                                : DTS 5.1 @ 1.5 Mbps – Одноголосый закадровый (Ю.Сербин)
Язык                                     : Russian
Default                                  : Да
Forced                                   : Нет

Аудио #2
Идентификатор                            : 3
Формат                                   : DTS
Формат/Информация                        : Digital Theater Systems
Идентификатор кодека                     : A_DTS
Продолжительность                        : 1 ч. 30 м.
Вид битрейта                             : Постоянный
Битрейт                                  : 1510 Кбит/сек
Каналы                                   : 6 каналов
Расположение каналов                     : Front: L C R, Side: L R, LFE
Частота                                  : 48,0 КГц
Битовая глубина                          : 24 бит
Метод сжатия                             : С потерями
Размер потока                            : 982 Мбайт (14%)
Заголовок                                : DTS 5.1 @ 1.5 Mbps – Одноголосый закадровый (А.Артемьев)
Язык                                     : Russian
Default                                  : Нет
Forced                                   : Нет

Аудио #3
Идентификатор                            : 4
Формат                                   : DTS
Формат/Информация                        : Digital Theater Systems
Идентификатор кодека                     : A_DTS
Продолжительность                        : 1 ч. 30 м.
Вид битрейта                             : Постоянный
Битрейт                                  : 1510 Кбит/сек
Каналы                                   : 6 каналов
Расположение каналов                     : Front: L C R, Side: L R, LFE
Частота                                  : 48,0 КГц
Битовая глубина                          : 24 бит
Метод сжатия                             : С потерями
Размер потока                            : 982 Мбайт (14%)
Заголовок                                : DTS 5.1 @ 1.5 Mbps
Язык                                     : English
Default                                  : Нет
Forced                                   : Нет

Текст #1
Идентификатор                            : 5
Формат                                   : UTF-8
Идентификатор кодека                     : S_TEXT/UTF8
Идентификатор кодека/Информация          : UTF-8 Plain Text
Заголовок                                : А.Артемьев
Язык                                     : Russian
Default                                  : Нет
Forced                                   : Нет

Текст #2
Идентификатор                            : 6
Формат                                   : UTF-8
Идентификатор кодека                     : S_TEXT/UTF8
Идентификатор кодека/Информация          : UTF-8 Plain Text
Язык                                     : English
Default                                  : Нет
Forced                                   : Нет

Меню
00:00:00.000                             : en:00:00:00.000
00:07:57.686                             : en:00:07:57.686
00:15:35.184                             : en:00:15:35.184
00:24:07.321                             : en:00:24:07.321
00:33:18.663                             : en:00:33:18.663
00:41:11.094                             : en:00:41:11.094
00:48:52.346                             : en:00:48:52.346
00:55:55.310                             : en:00:55:55.310
01:01:50.373                             : en:01:01:50.373
01:11:12.602                             : en:01:11:12.602
01:18:16.025                             : en:01:18:16.025
01:26:39.111                             : en:01:26:39.111
Свернуть
Скриншоты

Изображение
Изображение
Изображение
Изображение
Изображение
Изображение
Свернуть

Изображение
Не в сети
Профиль  
 Добавлено: 2012-03-18 23:49 (спустя 3 часа)
Модератор
Аватара пользователя
Стаж: 6 лет 10 месяцев
Возраст: 33
Сообщений: 5908
Спасибок: 61253
Лайков: 3540
Такие старые стали актёры :(
_________________
ИзображениеИзображение Изображение
Изображение
Не в сети
Профиль  
 Добавлено: 2012-08-29 19:24 (спустя 5 месяцев 10 дней)
Аватара пользователя
Стаж: 7 лет 11 месяцев
Сообщений: 51
Лайков: 1
Да, время идет....
Не в сети
Профиль  
 Добавлено: 2012-09-30 23:01 (спустя 1 месяц 1 день)
Аватара пользователя
Стаж: 8 лет 11 месяцев
Возраст: 29
Сообщений: 297
Спасибок: 965
Лайков: 36
Шедевр. Могу смотреть бесконечно.
Не в сети
Профиль  
 Добавлено: 2012-10-03 14:06 (спустя 2 дня 15 часов)
Аватара пользователя
Стаж: 8 лет 1 месяц
Сообщений: 358
Спасибок: 744
Лайков: 13
Почемуто пропустил данный фильм, спасибо, обязательно посмотрю...
Не в сети
Профиль  
Начать новую темуОтветить на тему  [ Сообщений: 5 ] 
Вы не можете начинать темы
Вы не можете отвечать на сообщения
Вы не можете редактировать свои сообщения
Вы не можете удалять свои сообщения