Правила форума

Здесь находятся раздачи, на которых не было полного источника (сида) более месяца.
Вы можете вернуть релиз в соответствующий раздел, для этого напишите нам в специальной теме и встаньте на раздачу.
Новые релизы, повторяющие релизы в архиве, повторами не считаются.
Начать новую темуОтветить на тему  [ Сообщений: 12 ] 
Сообщения
 Добавлено: 2013-08-15 05:49
DVD Release Group
Аватара пользователя
Стаж: 7 лет 1 месяц
Сообщений: 3559
Спасибок: 247428
Лайков: 1020
Великий Гэтсби

The Great Gatsby


Изображение


Год выпуска: 2013
Страна: Австралия, США
Жанр: Драма, мелодрама
Продолжительность: 02:22:06
Перевод: Профессиональный (полное дублирование)
Субтитры: Английские
Режиссер: Баз Лурман
В ролях: Леонардо ДиКаприо, Тоби Магуайр, Кэри Маллиган, Джоэл Эдгертон, Айла Фишер, Лиза Адам, Фрэнк Элдридж, Амитабх Баччан, Стив Бисли, Ричард Картер
Описание: Весной 1922 года, в эпоху разлагающейся морали, блистательного джаза и «королей контрабандного алкоголя», Ник Каррауэй приезжает из Среднего Запада в Нью-Йорк. Преследуя собственную американскую мечту, он селится по соседству с таинственным, известным своими вечеринками миллионером Джеем Гэтсби, а на противоположном берегу бухты проживают его кузина Дэйзи и её муж, повеса и аристократ, Том Бьюкенен. Так Ник оказывается вовлечённым в захватывающий мир богатых — их иллюзий, любви и обманов. Он становится свидетелем происходящего в этом мире и пишет историю невозможной любви, вечных мечтаний и человеческой трагедии, которые являются отражением современных времен и нравов.
Изображение
Качество: BDRip 1080p
Формат: MKV
Видео кодек: H.264
Аудио кодек: AC3, DTS
Видео: 1920x800 23.98fps 10,9Mb/s
Аудио:
Аудио Rus: AC3 48kHz 2ch 192Kbps
Аудио Eng: DTS 48kHz 6ch 1510Kbps
"MediaInfo"
Формат : Matroska
Версия формата : Version 2
Размер файла : 12,8 Гбайт
Продолжительность : 2 ч. 22 м.
Общий поток : 12,9 Мбит/сек
Название фильма : The.Great.Gatsby.2013.1080p.BluRay.DTS.x264-HDWinG
Дата кодирования : UTC 2013-08-14 17:56:14
Программа кодирования : mkvmerge v3.4.0 ('Rapunzel') built on May 15 2010 09:38:20
Библиотека кодирования : libebml v0.8.0 + libmatroska v0.9.0

Видео
Идентификатор : 1
Формат : AVC
Формат/Информация : Advanced Video Codec
Профиль формата : High@L4.1
Параметр CABAC формата : Да
Параметр ReFrames формата : 5 кадров
Идентификатор кодека : V_MPEG4/ISO/AVC
Продолжительность : 2 ч. 22 м.
Битрейт : 10,9 Мбит/сек
Ширина : 1920 пикселей
Высота : 800 пикселей
Соотношение сторон : 2,40:1
Частота кадров : 23,976 кадра/сек
Цветовое пространство : YUV
Субдискретизация насыщенности : 4:2:0
Битовая глубина : 8 бит
Тип развёртки : Прогрессивная
Бит/(Пиксели*Кадры) : 0.297
Размер потока : 10,9 Гбайт (85%)
Заголовок : The.Great.Gatsby.2013.1080p.BluRay.DTS.x264-HDWinG
Библиотека кодирования : x264 core 132 r2323+704+51 d571b1c tMod [8-bit@4:2:0 X86_64]
Настройки программы : cabac=1 / ref=5 / deblock=1:-3:-3 / analyse=0x3:0x133 / me=umh / subme=11 / psy=1 / fade_compensate=0.00 / psy_rd=1.10:0.00 / mixed_ref=1 / me_range=48 / chroma_me=1 / trellis=2 / 8x8dct=1 / cqm=0 / deadzone=21,11 / fast_pskip=0 / chroma_qp_offset=-2 / threads=36 / lookahead_threads=6 / sliced_threads=0 / nr=0 / decimate=0 / interlaced=0 / bluray_compat=0 / constrained_intra=0 / fgo=0 / bframes=8 / b_pyramid=2 / b_adapt=2 / b_bias=0 / direct=3 / weightb=1 / open_gop=0 / weightp=2 / keyint=240 / keyint_min=24 / scenecut=40 / intra_refresh=0 / rc=crf / mbtree=0 / crf=18.0000 / qcomp=0.70 / qpmin=0 / qpmax=69 / qpstep=4 / ip_ratio=1.15 / pb_ratio=1.15 / aq=4:0.80 / aq-sensitivity=10.00 / aq-factor=1.00:1.00:1.00 / aq2=0 / aq3=0
Язык : English
Default : Нет
Forced : Да

Аудио #1
Идентификатор : 2
Формат : AC-3
Формат/Информация : Audio Coding 3
Расширение режима : CM (complete main)
Идентификатор кодека : A_AC3
Продолжительность : 2 ч. 22 м.
Вид битрейта : Постоянный
Битрейт : 192 Кбит/сек
Каналы : 2 канала
Расположение каналов : Front: L R
Частота : 48,0 КГц
Битовая глубина : 16 бит
Метод сжатия : С потерями
Размер потока : 195 Мбайт (1%)
Заголовок : ac3 2.0 192 DUB
Язык : Russian
Default : Да
Forced : Нет

Аудио #2
Идентификатор : 3
Формат : DTS
Формат/Информация : Digital Theater Systems
Идентификатор кодека : A_DTS
Продолжительность : 2 ч. 22 м.
Вид битрейта : Постоянный
Битрейт : 1510 Кбит/сек
Каналы : 6 каналов
Расположение каналов : Front: L C R, Side: L R, LFE
Частота : 48,0 КГц
Битовая глубина : 16 бит
Метод сжатия : С потерями
Задержка видео : 11 мс.
Размер потока : 1,50 Гбайт (12%)
Заголовок : dts 5.1 1536
Язык : English
Default : Нет
Forced : Нет

Текст
Идентификатор : 4
Формат : UTF-8
Идентификатор кодека : S_TEXT/UTF8
Идентификатор кодека/Информация : UTF-8 Plain Text
Язык : English
Default : Нет
Forced : Нет
Свернуть

"Скриншоты"
Изображение
Изображение
Изображение
Свернуть

Раздача группы:
Изображение
Не в сети
Профиль  
 Добавлено: 2013-08-15 07:13 (спустя 1 час 24 минуты)
Аватара пользователя
Стаж: 9 лет 1 месяц
Сообщений: 687
Спасибок: 2543
Лайков: 17
Спасибки! давно ждал это кино
Не в сети
Профиль  
 Добавлено: 2013-08-15 15:18 (спустя 8 часов)
Стаж: 7 лет 10 месяцев
Сообщений: 8
огромное спасибо)
Не в сети
Профиль  
 Добавлено: 2013-08-15 19:29 (спустя 4 часа)
Аватара пользователя
Стаж: 8 лет 1 месяц
Возраст: 33
Сообщений: 20
Спасибо!Фильм отличный! :co_ol:
Не в сети
Профиль  
 Добавлено: 2013-08-15 20:47 (спустя 1 час 18 минут)
Модератор
Аватара пользователя
Стаж: 8 лет 3 месяца
Возраст: 22
Сообщений: 1903
Спасибок: 1500
Лайков: 5
rastor
не подскажите когда будет лицензия?
Не в сети
Профиль  
 Добавлено: 2013-08-15 20:55 (спустя 7 минут)
DVD Release Group
Аватара пользователя
Стаж: 7 лет 1 месяц
Сообщений: 3559
Спасибок: 247428
Лайков: 1020
art-gruzdev
Через 2 недели.
Не в сети
Профиль  
 Добавлено: 2013-08-15 21:02 (спустя 6 минут)
Модератор
Аватара пользователя
Стаж: 8 лет 3 месяца
Возраст: 22
Сообщений: 1903
Спасибок: 1500
Лайков: 5
rastor
ууу....наверно не выдержу=)спасибо!=)
Не в сети
Профиль  
 Добавлено: 2013-08-16 08:47 (спустя 11 часов)
Аватара пользователя
Стаж: 7 лет 8 месяцев
Сообщений: 215
Лайков: 2
хороший фильм, спасибо!
саундтрэк порадовал :)
_________________
Core i5 2400 / 16GB DDR3 / GTX 960
Не в сети
Профиль  
 Добавлено: 2013-08-20 15:31 (спустя 4 дня)
Аватара пользователя
Стаж: 8 лет 11 месяцев
Возраст: 29
Сообщений: 5347
Спасибок: 311
Спасибо, смотрел на одном дыхании!
_________________
Маленький Жып на drive2!
Мои игрушки
Intel Pentium D [915 3.0Ghz/GA-8I945PLGE-RH/3Gb Samsung DDR2 6400/Zotac 8800GT CoolVIVA/2Tb WD Green EARX/160Gb Seagate/80Gb WD/Pioneer DVR-108/17" HP1740] - Мой зверь!
Explay Informer 701 [7" 800x480 TFT/CPU 1Ghz BoxChip A10(Cortex A8)/GPU ARM Mali-400/512Mb DDR2/4Gb HDD/1.3Mpx/G-Sensor/3000mah/Wi-Fi b/g/n/Android 4.0.3 Ice Cream Sandwich]
Highscreen Jet Duo [3,2" 320x480 TFT/CPU 800Mhz/GPU Adreno 200/512Mb DDR3/512Mb HDD/2Mpx/G-Sensor/Wi-Fi b/g/Android 2.3]
PlayStation3 160Gb [4.25FW/Resistance3/GoW3/KillZone3/Bulletstorm/InFamous2/Twisted Metall/GT5/Uncharted2/MS:Pacific Rift]
Изображение
Свернуть
PSN Gamer Ranking
Изображение
Свернуть
Не в сети
Профиль  
 Добавлено: 2013-08-20 22:20 (спустя 6 часов)
Аватара пользователя
Стаж: 4 года 10 месяцев
Возраст: 24
Сообщений: 66
Не плохо бы было увидеть сэмпл
_________________
Изображение
Не в сети
Профиль  
 Добавлено: 2013-08-21 22:14 (спустя 23 часа)
Модератор
Аватара пользователя
Стаж: 8 лет 3 месяца
Возраст: 22
Сообщений: 1903
Спасибок: 1500
Лайков: 5
сначала все было так идеально списано с книги,что даже не верилось...но концовка...самый красивый и романтичный момент фильма оказался таки отступлением от книги=)
Не в сети
Профиль  
 Добавлено: 2013-08-25 20:58 (спустя 3 дня)
Модератор
Аватара пользователя
Стаж: 8 лет 11 месяцев
Сообщений: 516
Спасибок: 26888
Лайков: 1
viewtopic.php?f=1750&t=515894
Не в сети
Профиль  
Начать новую темуОтветить на тему  [ Сообщений: 12 ] 
Вы не можете начинать темы
Вы не можете отвечать на сообщения
Вы не можете редактировать свои сообщения
Вы не можете удалять свои сообщения
cron