Правила форума

Здесь находятся раздачи, на которых не было полного источника (сида) более месяца.
Вы можете вернуть релиз в соответствующий раздел, для этого напишите нам в специальной теме и встаньте на раздачу.
Новые релизы, повторяющие релизы в архиве, повторами не считаются.
Начать новую темуОтветить на тему  [ 1 сообщение ] 
Сообщения
 Добавлено: 2011-01-02 04:44
Top-releaser
Аватара пользователя
Стаж: 6 лет 11 месяцев
Возраст: 45
Сообщений: 299
Спасибок: 4106
Лайков: 3
Вертикальный предел / Vertical Limit
«The Mountain Will Decide.»

Изображение

Год выпуска: 2000
Страна: США, Германия
Жанр: боевик, триллер, приключения
Продолжительность: 02:04:27
Перевод: Профессиональный (многоголосый, закадровый), Профессиональный (полное дублирование)

Режиссер: Мартин Кэмпбелл / Martin Campbell
Сценарий: Роберт Кинг / Robert King, Терри Хэйес / Terry Hayes
Продюсер: Мартин Кэмпбелл / Martin Campbell, Роберт Кинг / Robert King, Эми Лескоу / Amy Lescoe, Майк Медавой / Mike Medavoy, Сара Меткалф / Sarah Metcalfe
Оператор: Дэвид Тэттерсолл / David Tattersall
Композитор: Джеймс Ньютон Ховард / James Newton Howard

В ролях: Крис О’Доннелл (Peter Garrett), Робин Танни (Annie Garrett), Стюарт Уилсон (Royce Garrett), Оджи Дэвис (Aziz), Темуэра Моррисон (Major Rasul), Рошан Сет (Colonel Amir Salim), Алехандро Вальдес-Рочин (Sergeant Asim), Николас Лиа (Tom McLaren), Род Браун (Ali Hasan), Скотт Гленн (Montgomery Wick), Стив Ле Маркванд (Cyril Bench), Бен Мендельсон (Malcolm Bench)
Описание: Группа альпинистов оказалась погребенной заживо в расщелине у вершины К-2, второй после Эвереста горы мира. На такой высоте им оставалось жить считанные часы.
Шестеро отчаянных смельчаков решают подняться на роковую отметку, чтобы вызволить их из ледяной могилы. Но для этого им придется обогнать свою главную соперницу, которая уже спускается по склонам удушающим холодом и неожиданными лавинами - саму смерть.

Изображение
Бюджет: $75 000 000
Маркетинг: $31 600 000
Сборы в США: $69 243 859
Сборы в мире: $215 663 859
Мировая премьера: 3 декабря 2000
Релиз на Blu-ray: 21 мая 2009, «Columbia\Sony»
Изображение

MPAA: Изображение - Детям до 13 лет просмотр не желателен
Качество: BDRip
Формат: Matroska
Видео: AVC; 1920x1040 (16:9); 12291 Kbps; 23,976 fps; 0,257 bpp
Аудио №1: Russian; AC3; 448 Kbps; CBR; 6 ch [Профессиональный (полное дублирование)]
Аудио №2: Russian; AC3; 448 Kbps; CBR; 6 ch [Профессиональный (многоголосый, закадровый)]
Аудио №3: English; AC3; 640 Kbps; CBR; 6 ch
Субтитры: Russian

Раздача группы:Изображение

"MediaInfo"

General
Complete name : Vertical.Limit.BDRip.1080p.mkv
Format : Matroska
File size : 12.3 GiB
Duration : 2h 4mn
Overall bit rate : 14.1 Mbps
Encoded date : UTC 2008-05-08 17:18:01
Writing application : mkvmerge v2.2.0 ('Turn It On Again') built on Mar 10 2008 10:55:12
Writing library : libebml v0.7.7 + libmatroska v0.8.1

Video
ID : 1
Format : AVC
Format/Info : Advanced Video Codec
Format profile : High@L4.1
Format settings, CABAC : Yes
Format settings, ReFrames : 4 frames
Muxing mode : Container profile=Unknown@4.1
Codec ID : V_MPEG4/ISO/AVC
Duration : 2h 4mn
Bit rate : 12.6 Mbps
Width : 1 920 pixels
Height : 1 040 pixels
Display aspect ratio : 16:9
Frame rate : 23.976 fps
Color space : YUV
Chroma subsampling : 4:2:0
Bit depth : 8 bits
Scan type : Progressive
Bits/(Pixel*Frame) : 0.263
Stream size : 10.7 GiB (87%)
Writing library : x264 core 58 svn-736M
Encoding settings : cabac=1 / ref=4 / deblock=1:-3:-3 / analyse=0x3:0x113 / me=umh / subme=7 / brdo=1 / mixed_ref=1 / me_range=16 / chroma_me=1 / trellis=0 / 8x8dct=1 / cqm=2 / deadzone=10,12 / chroma_qp_offset=0 / threads=6 / nr=0 / decimate=1 / mbaff=0 / bframes=3 / b_pyramid=1 / b_adapt=1 / b_bias=0 / direct=3 / wpredb=1 / bime=1 / keyint=250 / keyint_min=25 / scenecut=40(pre) / rc=2pass / bitrate=12569 / ratetol=1.0 / rceq='blurCplx^(1-qComp)' / qcomp=1.00 / qpmin=10 / qpmax=51 / qpstep=4 / cplxblur=20.0 / qblur=0.5 / ip_ratio=1.40 / pb_ratio=1.30 / aq=1:0.5:13.0
Language : English

Audio #1
ID : 2
Format : AC-3
Format/Info : Audio Coding 3
Mode extension : CM (complete main)
Codec ID : A_AC3
Duration : 2h 4mn
Bit rate mode : Constant
Bit rate : 448 Kbps
Channel(s) : 6 channels
Channel positions : Front: L C R, Side: L R, LFE
Sampling rate : 48.0 KHz
Bit depth : 16 bits
Stream size : 399 MiB (3%)
Title : DD 5.1 @ 448kbps (Dubbed)
Language : Russian

Audio #2
ID : 3
Format : AC-3
Format/Info : Audio Coding 3
Mode extension : CM (complete main)
Codec ID : A_AC3
Duration : 2h 4mn
Bit rate mode : Constant
Bit rate : 448 Kbps
Channel(s) : 6 channels
Channel positions : Front: L C R, Side: L R, LFE
Sampling rate : 48.0 KHz
Bit depth : 16 bits
Stream size : 399 MiB (3%)
Title : DD 5.1 @ 448kbps (Voice Over)
Language : Russian

Audio #3
ID : 4
Format : AC-3
Format/Info : Audio Coding 3
Mode extension : CM (complete main)
Codec ID : A_AC3
Duration : 2h 4mn
Bit rate mode : Constant
Bit rate : 640 Kbps
Channel(s) : 6 channels
Channel positions : Front: L C R, Side: L R, LFE
Sampling rate : 48.0 KHz
Bit depth : 16 bits
Stream size : 570 MiB (5%)
Title : DD 5.1 @ 640kbps
Language : English

Text
ID : 5
Format : UTF-8
Codec ID : S_TEXT/UTF8
Codec ID/Info : UTF-8 Plain Text
Language : Russian
Свернуть
"Скриншоты"
Изображение
Изображение
Изображение
Изображение
Изображение
Изображение
Изображение
Изображение
Изображение
Изображение
Свернуть
"Знаете ли Вы, что..."
  • Режиссёр Мартин Кэмпбелл впервые за всю свою многолетнюю карьеру проводил съёмки в родной Новой Зеландии.
  • Беспалая ступня персонажа Монтгомери Вик, появляющаяся в кадре в одной из начальных сцен, в реальности принадлежала известному альпинисту Марку Вету, лишившегося пальцев на ногах во время попытки восхождения на Эверест в 1994 году.
  • Большинство трюков в фильме были исполнены самими актёрами.
  • Два героя картины Том МакЛарен и Фрэнк Уильямс были названы в честь ведущих команд автогонок Формулы-1. Имя второго при этом полностью совпадает с именем основателя и одного из владельцев команды «Уильямс» Фрэнка Уильямса.
  • Известный американский профессиональный альпинист Эд Виcтурс появляется в камео в роли самого себя.
  • Съёмки фильма проходили с 2 августа по декабрь 1999 года в Новой Зеландии, США и Пакистане.
Свернуть
Не в сети
Профиль  
Начать новую темуОтветить на тему  [ 1 сообщение ] 
Вы не можете начинать темы
Вы не можете отвечать на сообщения
Вы не можете редактировать свои сообщения
Вы не можете удалять свои сообщения