Правила форума

Здесь находятся раздачи, на которых не было полного источника (сида) более месяца.
Вы можете вернуть релиз в соответствующий раздел, для этого напишите нам в специальной теме и встаньте на раздачу.
Новые релизы, повторяющие релизы в архиве, повторами не считаются.
Начать новую темуОтветить на тему  [ 1 сообщение ] 
Сообщения
 Добавлено: 2013-02-07 08:54
Модератор релиз-группы
Аватара пользователя
Стаж: 6 лет 5 месяцев
Возраст: 25
Сообщений: 622
Спасибок: 10259
Лайков: 7
Весенние надежды / Hope Springs

Изображение


Год выпуска: 2012
Страна: Драма, комедия
Жанр: Драма, комедия
Продолжительность: 01:39:52
Перевод: Профессиональный (полное дублирование)
Субтитры: Русские

Режиссёр: Дэвид Фрэнкел
В ролях: Мэрил Стрип, Томми Ли Джонс, Стив Карелл, Джин Смарт, Бен Раппапорт, Марин Айрлэнд, Патрик Дарро, Бретт Райс, Бекки Энн Бэйкер, Элизабет Шу, Чарльз Текман, Дэн Флаэрти, Дамиан Янг, Мими Роджерс, Энн Харада, Джек Хейли, Сьюзэн Миснер, Рони Клэнтон, Джон Средницкий, Мадлен Рускин, Ли Каннингэм, Пол Джуд Летерски, Роджина Беделл-О’Брайен, Стефен Ли Дэвис
Описание: Главные герои фильма — супружеская пара, находящаяся в браке более 30 лет и пытающаяся при помощи доктора Фелда, занимающегося проблемами семейных союзов, разжечь угасшие отношения.
Изображение 6,5/10 (1,905 votes)
Изображение 6,4/10 (13,993 votes)
Раздача группы: Изображение
Качество: Blu-Ray Remux (1080p)
Видео: MPEG-4 AVC, 24.9 Mбит/с, 1920x1080
Аудио: Русский (DTS, 6 ch, 768 Кбит/с), (AC3, 6 ch, 384 Кбит/с), английский (DTS-HD MA, 6 ch, 2885 Кбит/с)
Размер: 20.29 ГБ
Субтитры: Aнглийские, французские, испанские, русские
BDInfo
General
Unique ID : 218681780337258223351213620106676896946 (0xA48494331337E66DA1A8ACA908D784B2)
Complete name : D:\Hope Springs 2012 1080p Blu-ray Remux AVC DTS-HD MA 5.1.mkv
Format : Matroska
Format version : Version 2
File size : 20.3 GiB
Duration : 1h 39mn
Overall bit rate mode : Variable
Overall bit rate : 29.1 Mbps
Movie name : Denils
Encoded date : UTC 2013-02-06 19:03:58
Writing application : mkvmerge v4.0.0 ('The Stars were mine') сборка от Jun 6 2010 16:18:42
Writing library : libebml v1.0.0 + libmatroska v1.0.0

Video
ID : 1
Format : AVC
Format/Info : Advanced Video Codec
Format profile : High@L4.1
Format settings, CABAC : Yes
Format settings, ReFrames : 2 frames
Format settings, GOP : M=1, N=10
Codec ID : V_MPEG4/ISO/AVC
Duration : 1h 39mn
Bit rate mode : Variable
Bit rate : 25.8 Mbps
Width : 1 920 pixels
Height : 1 080 pixels
Display aspect ratio : 16:9
Frame rate mode : Constant
Frame rate : 23.976 fps
Color space : YUV
Chroma subsampling : 4:2:0
Bit depth : 8 bits
Scan type : Progressive
Bits/(Pixel*Frame) : 0.519
Stream size : 18.0 GiB (89%)
Language : English
Default : No
Forced : No

Audio #1
ID : 2
Format : DTS
Format/Info : Digital Theater Systems
Codec ID : A_DTS
Duration : 1h 39mn
Bit rate mode : Constant
Bit rate : 755 Kbps
Channel(s) : 6 channels
Channel positions : Front: L C R, Side: L R, LFE
Sampling rate : 48.0 KHz
Bit depth : 24 bits
Compression mode : Lossy
Delay relative to video : 11ms
Stream size : 539 MiB (3%)
Title : DTS 5.1 @ 768 kbps - MVO, R5
Language : Russian
Default : No
Forced : Yes

Audio #2
ID : 3
Format : AC-3
Format/Info : Audio Coding 3
Mode extension : CM (complete main)
Format settings, Endianness : Big
Codec ID : A_AC3
Duration : 1h 39mn
Bit rate mode : Constant
Bit rate : 384 Kbps
Channel(s) : 6 channels
Channel positions : Front: L C R, Side: L R, LFE
Sampling rate : 48.0 KHz
Bit depth : 16 bits
Compression mode : Lossy
Stream size : 274 MiB (1%)
Language : Russian
Default : No
Forced : No

Audio #3
ID : 4
Format : DTS
Format/Info : Digital Theater Systems
Format profile : MA / Core
Codec ID : A_DTS
Duration : 1h 39mn
Bit rate mode : Variable
Bit rate : 1 561 Kbps / 1 510 Kbps
Channel(s) : 6 channels
Channel positions : Front: L C R, Side: L R, LFE
Sampling rate : 48.0 KHz
Bit depth : 24 bits
Compression mode : Lossless / Lossy
Language : English
Default : No
Forced : No

Text #1
ID : 5
Format : UTF-8
Codec ID : S_TEXT/UTF8
Codec ID/Info : UTF-8 Plain Text
Title : R5
Language : Russian
Default : No
Forced : No

Text #2
ID : 6
Format : PGS
Codec ID : S_HDMV/PGS
Codec ID/Info : The same subtitle format used on BDs/HD-DVDs
Language : English
Default : No
Forced : No

Text #3
ID : 7
Format : PGS
Codec ID : S_HDMV/PGS
Codec ID/Info : The same subtitle format used on BDs/HD-DVDs
Title : SDH
Language : English
Default : No
Forced : No

Text #4
ID : 8
Format : PGS
Codec ID : S_HDMV/PGS
Codec ID/Info : The same subtitle format used on BDs/HD-DVDs
Language : French
Default : No
Forced : No

Text #5
ID : 9
Format : PGS
Codec ID : S_HDMV/PGS
Codec ID/Info : The same subtitle format used on BDs/HD-DVDs
Title : Latin American
Language : Spanish
Default : No
Forced : No

Menu
00:00:00.000 : en:00:00:00.000
00:07:08.887 : en:00:07:08.887
00:13:29.017 : en:00:13:29.017
00:17:47.441 : en:00:17:47.441
00:24:03.275 : en:00:24:03.275
00:31:19.920 : en:00:31:19.920
00:36:56.756 : en:00:36:56.756
00:44:27.039 : en:00:44:27.039
00:52:50.626 : en:00:52:50.626
01:00:53.900 : en:01:00:53.900
01:07:27.710 : en:01:07:27.710
01:12:04.570 : en:01:12:04.570
01:15:24.311 : en:01:15:24.311
01:21:14.787 : en:01:21:14.787
01:27:12.644 : en:01:27:12.644
01:33:19.844 : en:01:33:19.844
Свернуть
Знаете ли вы, что...
Джеффу Бриджесу была предложена главная мужская роль, но он отказался.

Несколько раз показывают, как Кей готовит Арнольду завтрак. Она жарит одну полоску бекона и разбивает одно яйцо на сковородку, однако на тарелке у Арнольда можно заметить два яйца.

Когда расстроенная Кей гуляет под дождем, ее волосы мокрые и выглядят растрепанно. Когда она заходит в бар, она быстро проводит по ним рукой, и к тому времени, когда она садится (проходит пара секунд), ее волосы уже сухие и аккуратно уложены.

Почти в каждой уличной сцене у дома Кей и Арнольда можно заметить Buick и Subaru, припаркованные на подъездной дорожке перед гаражом. Однако, когда приезжает такси, чтобы забрать Кей в аэропорт и привезти ее и Арнольда обратно, машин там нет.
Предположительно они могли переставить машины в гараж, поскольку собирались уехать из города. Когда Кей собирается уехать, неизвестно ни ей, ни Арнольду, который собирался сопровождать ее.
Свернуть
Скриншоты
Изображение
Изображение
Изображение
Изображение
Изображение
Изображение
Свернуть
_________________
Изображение
Не в сети
Профиль  
Начать новую темуОтветить на тему  [ 1 сообщение ] 
Вы не можете начинать темы
Вы не можете отвечать на сообщения
Вы не можете редактировать свои сообщения
Вы не можете удалять свои сообщения