Правила форума

Здесь находятся раздачи, на которых не было полного источника (сида) более месяца.
Вы можете вернуть релиз в соответствующий раздел, для этого напишите нам в специальной теме и встаньте на раздачу.
Новые релизы, повторяющие релизы в архиве, повторами не считаются.
Начать новую темуОтветить на тему  [ 1 сообщение ] 
Сообщения
 Добавлено: 2011-08-15 08:19
Книголюб
Аватара пользователя
Стаж: 7 лет 2 месяца
Сообщений: 2823
Спасибок: 48825
Лайков: 73
Ветеран
The Veteran
Изображение


Год выпуска: 2011
Страна: Великобритания
Жанр: боевик, триллер
Продолжительность: 01:34:12
Перевод: Любительский (многоголосый закадровый)

Режиссёр: Мэттью Хоуп
В ролях: Тоби Кеббелл, Брайан Кокс, Тони Карран, Ади Бельский, Том Брук, Баши, Мем Ферда, Иванно Джеремия, Селва Расалингам, Ебосета Аймера
Описание: Солдат, вернувшись с войны в Афганистане, раскрывает заговор, в который вовлечена служба разведки и банда наркоторговцев.
Мировая премьера: 29 апреля 2011
Изображение 6.081 239

Качество: BDRip 1080p
Формат: MKV
Видео кодек: H264
Аудио кодек: AC3 (Dolby Digital)
Видео: 1920X1040, 24.000 fps, 11.3 Mbps, 0.237Bits/Pixel
Аудио #1: Russian: AC3, 384 Kbps (6 ch)
Аудио #2: English: DTS-HD, 1510 Kbps (6 ch)
MediaInfo
General
Unique ID : 207256773370247444404580673182429596244 (0x9BEC33DDAA2550AC82ECCB71FF9FCA54)
Complete name : I:\1.08\The.Veteran.2011.x264.BDRip.1080p.mkv
Format : Matroska
File size : 9.06 GiB
Duration : 1h 38mn
Overall bit rate : 13.2 Mbps
Movie name : The Veteran
Encoded date : UTC 2011-08-13 13:56:43
Writing application : mkvmerge v4.5.0 ('Speed of Light') сборка от Feb 1 2011 02:10:32
Writing library : libebml v1.2.0 + libmatroska v1.1.0

Video
ID : 1
Format : AVC
Format/Info : Advanced Video Codec
Format profile : High@L4.1
Format settings, CABAC : Yes
Format settings, ReFrames : 5 frames
Muxing mode : Header stripping
Codec ID : V_MPEG4/ISO/AVC
Duration : 1h 38mn
Bit rate : 11.3 Mbps
Width : 1 920 pixels
Height : 1 040 pixels
Display aspect ratio : 16:9
Frame rate : 24.000 fps
Color space : YUV
Chroma subsampling : 4:2:0
Bit depth : 8 bits
Scan type : Progressive
Bits/(Pixel*Frame) : 0.237
Stream size : 7.59 GiB (84%)
Title : The Veteran
Writing library : x264 core 92 r1510 33d382a
Encoding settings : cabac=1 / ref=5 / deblock=1:-3:-3 / analyse=0x3:0x133 / me=umh / subme=10 / psy=1 / psy_rd=1.00:0.10 / mixed_ref=1 / me_range=32 / chroma_me=1 / trellis=2 / 8x8dct=1 / cqm=0 / deadzone=21,11 / fast_pskip=0 / chroma_qp_offset=-5 / threads=12 / sliced_threads=0 / nr=0 / decimate=1 / interlaced=0 / constrained_intra=0 / bframes=6 / b_pyramid=2 / b_adapt=2 / b_bias=0 / direct=3 / wpredb=1 / wpredp=2 / keyint=250 / keyint_min=23 / scenecut=40 / intra_refresh=0 / rc_lookahead=60 / rc=2pass / mbtree=1 / bitrate=11342 / ratetol=1.0 / qcomp=0.60 / qpmin=1 / qpmax=51 / qpstep=4 / cplxblur=20.0 / qblur=0.5 / ip_ratio=1.40 / aq=2:0.80
Language : English

Audio #1
ID : 2
Format : AC-3
Format/Info : Audio Coding 3
Mode extension : CM (complete main)
Muxing mode : Header stripping
Codec ID : A_AC3
Duration : 1h 38mn
Bit rate mode : Constant
Bit rate : 384 Kbps
Channel(s) : 6 channels
Channel positions : Front: L C R, Side: L R, LFE
Sampling rate : 48.0 KHz
Bit depth : 16 bits
Compression mode : Lossy
Stream size : 270 MiB (3%)
Title : AC3
Language : Russian

Audio #2
ID : 3
Format : DTS
Format/Info : Digital Theater Systems
Muxing mode : Header stripping
Codec ID : A_DTS
Duration : 1h 38mn
Bit rate mode : Constant
Bit rate : 1 510 Kbps
Channel(s) : 6 channels
Channel positions : Front: L C R, Side: L R, LFE
Sampling rate : 48.0 KHz
Bit depth : 24 bits
Compression mode : Lossy
Stream size : 1.03 GiB (11%)
Title : DTS
Language : English


Свернуть


Скриншоты
Изображение
Изображение
Изображение
Изображение
Изображение
Свернуть
Не в сети
Профиль  
Начать новую темуОтветить на тему  [ 1 сообщение ] 
Вы не можете начинать темы
Вы не можете отвечать на сообщения
Вы не можете редактировать свои сообщения
Вы не можете удалять свои сообщения