Правила форума

Здесь находятся раздачи, на которых не было полного источника (сида) более месяца.
Вы можете вернуть релиз в соответствующий раздел, для этого напишите нам в специальной теме и встаньте на раздачу.
Новые релизы, повторяющие релизы в архиве, повторами не считаются.
Начать новую темуОтветить на тему  [ Сообщений: 2 ] 
Сообщения
 Добавлено: 2011-01-31 19:29
Модератор в армии
Аватара пользователя
Стаж: 7 лет 8 месяцев
Возраст: 24
Сообщений: 20668
Спасибок: 7406
Лайков: 62
Власть убийц / Jianyu

Изображение

Год выпуска: 2010 г.
Страна: Изображение Китай

Жанр: Боевик
Продолжительность: 01:59:48
Перевод: Профессиональный (многоголосый закадровый)

Режиссер: Чау-Бин Су, Джон Ву
Сценарий: Чау-Бин Су
Продюсер: Теренс Чанг, Тайлер Стоукс, Джон Ву
Оператор: Артур Вон, Винг-Хунг Вонг
Композитор: Питер Кам
Художник: Еми Вада
Монтаж: Вэй Чунг

В ролях: Мишель Йео, Юнг Ву-Санг, Барби Хсю, Шон Юэ, Келли Лин, Ван Сюэци, Го Сяодун, Леон Дай, Анджелес Ву

Бюджет: $12 000 000
Премьера (Мир): 3 сентября 2010

Описание: В фильме рассказывается история об убийце, обладающей высоким уровнем боевых искусств, которая перестала быть убийцей. Она изменила собственное лицо и начала жить как простые люди. Она познакомилась с простым и жизнерадостным парнем, и они поженились. Однако, из-за того, что у нее есть тело Джармы, которое все хотят получить, многие убийцы начали искать ее, что повлекло за собой череду бесконечных смертей.

Изображение 6.944 (204) Изображение 7.0/10 (1,407 votes)

Качество: BDRip 720р
Формат: MKV

Видео: V_MPEG4/ISO/AVC,1280x542,16:9,~ 5618 Кбит/сек
Аудио #1: Russia,AC-3,DD5.1,640 Kbps,48Hz, (6 ch)
Аудио #2: Chinese: DTS, 1510 kb/s ,48Hz,(6 ch)
MediaInfo
Видео
Идентификатор : 1
Формат : AVC
Формат/Информация : Advanced Video Codec
Профиль формата : High@L4.1
Параметр CABAC формата : Да
Параметр ReFrames формата : 12 кадры
Идентификатор кодека : V_MPEG4/ISO/AVC
Продолжительность : 1 ч. 59 м.
Битрейт : 5618 Кбит/сек
Ширина : 1280 пикс.
Высота : 542 пикс.
Соотношение сторон : 2,35:1
Частота кадров : 24,000 кадр/сек
Цветовое пространство : YUV
Подвыборка цветности : 4:2:0
Битовая глубина : 8 бит
Тип развёртки : Прогрессивная
Бит/(Пиксели*Кадры) : 0.337
Размер потока : 4,58 Гбайт (70%)
Заголовок : Reign.Of.Assassins.2010.BDRip.720p.CHD
Библиотека кодирования : x264 core 107 r1766 f9f0035
Настройки программы : cabac=1 / ref=12 / deblock=1:-3:-3 / analyse=0x3:0x113 / me=umh / subme=10 / psy=1 / psy_rd=1.05:0.00 / mixed_ref=1 / me_range=48 / chroma_me=1 / trellis=2 / 8x8dct=1 / cqm=2 / deadzone=21,11 / fast_pskip=0 / chroma_qp_offset=-1 / threads=12 / sliced_threads=0 / nr=0 / decimate=1 / interlaced=0 / constrained_intra=0 / bframes=6 / b_pyramid=2 / b_adapt=2 / b_bias=0 / direct=3 / weightb=1 / open_gop=0 / weightp=2 / keyint=250 / keyint_min=24 / scenecut=40 / intra_refresh=0 / rc_lookahead=50 / rc=2pass / mbtree=1 / bitrate=5618 / ratetol=1.0 / qcomp=0.60 / qpmin=10 / qpmax=51 / qpstep=4 / cplxblur=20.0 / qblur=0.5 / vbv_maxrate=50000 / vbv_bufsize=50000 / ip_ratio=1.40 / aq=1:0.80 / nal_hrd=none
Язык : Chinese

Аудио #1
Идентификатор : 2
Формат : AC-3
Формат/Информация : Audio Coding 3
Расширение режима : CM (complete main)
Идентификатор кодека : A_AC3
Продолжительность : 1 ч. 59 м.
Вид битрейта : Постоянный
Битрейт : 640 Кбит/сек
Канал(ы) : 6 канала(ов)
Расположение каналов : Front: L C R, Side: L R, LFE
Частота : 48,0 КГц
Битовая глубина : 16 бит
Метод сжатия : С потерями
Размер потока : 548 Мбайт (8%)
Заголовок : AC3 5.1 @ 640 kb/s [Russian MVO, BBC Saint-Petersburg ]
Язык : Russian

Аудио #2
Идентификатор : 3
Формат : DTS
Формат/Информация : Digital Theater Systems
Идентификатор кодека : A_DTS
Продолжительность : 1 ч. 59 м.
Вид битрейта : Постоянный
Битрейт : 1510 Кбит/сек
Канал(ы) : 6 канала(ов)
Расположение каналов : Front: L C R, Side: L R, LFE
Частота : 48,0 КГц
Битовая глубина : 24 бит
Метод сжатия : С потерями
Размер потока : 1,26 Гбайт (19%)
Заголовок : DTS 5.1 @ 1510 kb/s [Mandarin]
Язык : Chinese

Текст
Идентификатор : 4
Формат : UTF-8
Идентификатор кодека : S_TEXT/UTF8
Идентификатор кодека/Информация : UTF-8 Plain Text
Заголовок : English SUB
Язык : English
Свернуть

Скриншоты
Изображение

Изображение

Изображение
Свернуть
_________________
Изображение
Не в сети
Профиль  
 Добавлено: 2011-03-03 21:02 (спустя 1 месяц 3 дня)
Аватара пользователя
Стаж: 8 лет 10 месяцев
Возраст: 31
Сообщений: 70
Спасибок: 74
пораздавайте пож-та)))
Не в сети
Профиль  
Начать новую темуОтветить на тему  [ Сообщений: 2 ] 
Вы не можете начинать темы
Вы не можете отвечать на сообщения
Вы не можете редактировать свои сообщения
Вы не можете удалять свои сообщения