Правила форума

Здесь находятся раздачи, на которых не было полного источника (сида) более месяца.
Вы можете вернуть релиз в соответствующий раздел, для этого напишите нам в специальной теме и встаньте на раздачу.
Новые релизы, повторяющие релизы в архиве, повторами не считаются.
Начать новую темуОтветить на тему  [ 1 сообщение ] 
Сообщения
 Добавлено: 2012-12-16 15:26
Инквизитор
Аватара пользователя
Стаж: 8 лет 9 месяцев
Сообщений: 3753
Спасибок: 28361
Лайков: 9
Изображение

Вне закона
Down by Law


Год выпуска: 1986
Страна: США, Германия (ФРГ)
Слоган: «It's not where you start - It's where you start again.»
Жанр: драма, комедия, криминал
Продолжительность: 01:46:53
Перевод: Оригинальный, Профессиональный (многоголосый, закадровый), Авторский (Дольский Андрей)
Режиссер: Джим Джармуш
Сценарий: Джим Джармуш
Продюсер: Кэри Брокау, Отто Грокенбергер, Алан Клейнберг, Том Ротман, Расселл Шварц
Оператор: Робби Мюллер
Композитор: Джон Лури, Наоми Невилл, Том Уэйтс
В ролях: Том Уэйтс, Джон Лури, Роберто Бениньи, Николетта Браски, Эллен Баркин, Билли Нил, Рокетс Редглэр, Вернел Багнерис, Тимотея, Эл.Си. Дрейн, Джой Н. Хоук мл., Кэрри Линдсо
Бюджет: $1 100 000
Сборы в США: $1 435 668
Описание: Действие происходит в Новом Орлеане. Ди-джей Зак, переживающий полосу неудач, соглашается перегнать ворованный автомобиль, чтобы быстро заработать немного денег. К сожалению, его останавливает полиция. В багажнике его машины находят труп. Он попадает в тюрьму.
Сутенер Джек, подставленный своим врагом, тоже попадает в руки закона и оказывается в одной камере с Заком. Вскоре в их маленькой камере появляется Роберто, приятный, смешной итальянец, знающий всего несколько фраз по-английски и обожающий американские фильмы.
В конце концов все трое совершают побег и оказываются в луизианских болотах, где теряются, голодают и падают с ног от усталости…

Изображение
MPAA: Изображение
Мировая премьера: 7 сентября 1986
Релиз: Изображение Раздача группы: Изображение
Качество: BDRip, 720p
Формат: Matroska
Видео: AVC; 1280x720 (16:9); 23,976 fps
Аудио №1: Russian; AC3; 192 Kbps; CBR; 1 ch
Аудио №2: Russian; AC3; 192 Kbps; CBR; 1 ch
Аудио №3: FLAC; VBR; 1 ch; 16 bit
Аудио №4: AC3; 192 Kbps; CBR; 1 ch

Субтитры №1: Russian
Субтитры №2: Russian
Субтитры №3: English

mediainfo
Общее
Уникальный идентификатор : 171685149922392813330163679721044743748 (0x81295B6C7E17477383F7DCD3EED69644)
Полное имя : E:\Фильмы\Down.by.Law.1986.720p.BluRay.2xRus.Eng.HDCLUB.mkv
Формат : Matroska
Версия формата : Version 2
Размер файла : 8,54 Гбайт
Продолжительность : 1 ч. 46 м.
Режим общего битрейта : Переменный
Общий поток : 11,4 Мбит/сек
Дата кодирования : UTC 2012-09-29 03:14:32
Программа кодирования : mkvmerge v5.8.0 ('No Sleep / Pillow') built on Sep 2 2012 15:37:04
Библиотека кодирования : libebml v1.2.3 + libmatroska v1.3.0

Видео
Идентификатор : 1
Формат : AVC
Формат/Информация : Advanced Video Codec
Профиль формата : High@L4.1
Параметр CABAC формата : Да
Параметр ReFrames формата : 8 кадров
Идентификатор кодека : V_MPEG4/ISO/AVC
Продолжительность : 1 ч. 46 м.
Ширина : 1280 пикселей
Высота : 720 пикселей
Соотношение сторон : 16:9
Частота кадров : 23,976 кадра/сек
Цветовое пространство : YUV
Субдискретизация насыщенности : 4:2:0
Битовая глубина : 8 бит
Тип развёртки : Прогрессивная
Заголовок : Вне закона / Down by Law
Библиотека кодирования : x264 core 128 r2216 198a7ea
Настройки программы : cabac=1 / ref=8 / deblock=1:-3:-3 / analyse=0x3:0x113 / me=umh / subme=11 / psy=1 / psy_rd=1.05:0.05 / mixed_ref=1 / me_range=32 / chroma_me=1 / trellis=2 / 8x8dct=1 / cqm=0 / deadzone=21,11 / fast_pskip=0 / chroma_qp_offset=-3 / threads=12 / lookahead_threads=2 / sliced_threads=0 / nr=0 / decimate=1 / interlaced=0 / bluray_compat=0 / constrained_intra=0 / bframes=10 / b_pyramid=2 / b_adapt=2 / b_bias=0 / direct=1 / weightb=1 / open_gop=0 / weightp=2 / keyint=240 / keyint_min=23 / scenecut=40 / intra_refresh=0 / rc=crf / mbtree=0 / crf=17.3 / qcomp=0.70 / qpmin=0 / qpmax=69 / qpstep=4 / ip_ratio=1.40 / pb_ratio=1.30 / aq=2:0.80
Язык : English
Default : Да
Forced : Нет

Аудио #1
Идентификатор : 2
Формат : AC-3
Формат/Информация : Audio Coding 3
Расширение режима : CM (complete main)
Идентификатор кодека : A_AC3
Продолжительность : 1 ч. 46 м.
Вид битрейта : Постоянный
Битрейт : 192 Кбит/сек
Каналы : 1 канал
Расположение каналов : Front: C
Частота : 48,0 КГц
Битовая глубина : 16 бит
Метод сжатия : С потерями
Размер потока : 147 Мбайт (2%)
Заголовок : Многоголосый закадровый, R5, Кармен Видео, AC-3 192 Kbps 1/0
Язык : Russian
Default : Да
Forced : Нет

Аудио #2
Идентификатор : 3
Формат : AC-3
Формат/Информация : Audio Coding 3
Расширение режима : CM (complete main)
Идентификатор кодека : A_AC3
Продолжительность : 1 ч. 46 м.
Вид битрейта : Постоянный
Битрейт : 192 Кбит/сек
Каналы : 1 канал
Расположение каналов : Front: C
Частота : 48,0 КГц
Битовая глубина : 16 бит
Метод сжатия : С потерями
Размер потока : 147 Мбайт (2%)
Заголовок : Одноголосый закадровый, А.Дольский, AC-3 192 Kbps 1/0
Язык : Russian
Default : Нет
Forced : Нет

Аудио #3
Идентификатор : 4
Формат : FLAC
Формат/Информация : Free Lossless Audio Codec
Идентификатор кодека : A_FLAC
Продолжительность : 1 ч. 46 м.
Вид битрейта : Переменный
Каналы : 1 канал
Частота : 48,0 КГц
Битовая глубина : 16 бит
Заголовок : Английский оригинал, FLAC 240 Kbps 1/0
Библиотека кодирования : libFLAC 1.2.1 (UTC 2007-09-17)
Язык : English
Default : Нет
Forced : Нет

Аудио #4
Идентификатор : 5
Формат : AC-3
Формат/Информация : Audio Coding 3
Расширение режима : CM (complete main)
Идентификатор кодека : A_AC3
Продолжительность : 1 ч. 46 м.
Вид битрейта : Постоянный
Битрейт : 192 Кбит/сек
Каналы : 1 канал
Расположение каналов : Front: C
Частота : 48,0 КГц
Битовая глубина : 16 бит
Метод сжатия : С потерями
Размер потока : 147 Мбайт (2%)
Заголовок : Музыкальные фрагменты, AC-3 192 Kbps 1/0
Язык : English
Default : Нет
Forced : Нет

Текст #1
Идентификатор : 6
Формат : UTF-8
Идентификатор кодека : S_TEXT/UTF8
Идентификатор кодека/Информация : UTF-8 Plain Text
Заголовок : Субтитры (bonifakula)
Язык : Russian
Default : Нет
Forced : Нет

Текст #2
Идентификатор : 7
Формат : UTF-8
Идентификатор кодека : S_TEXT/UTF8
Идентификатор кодека/Информация : UTF-8 Plain Text
Заголовок : Субтитры (R5,Кармен)
Язык : Russian
Default : Нет
Forced : Нет

Текст #3
Идентификатор : 8
Формат : UTF-8
Идентификатор кодека : S_TEXT/UTF8
Идентификатор кодека/Информация : UTF-8 Plain Text
Заголовок : Субтитры
Язык : English
Default : Нет
Forced : Нет

Меню
00:00:00.000 : en:Chapter 01
00:04:30.186 : en:Chapter 02
00:05:54.854 : en:Chapter 03
00:09:39.829 : en:Chapter 04
00:12:01.971 : en:Chapter 05
00:15:17.124 : en:Chapter 06
00:18:45.249 : en:Chapter 07
00:20:02.576 : en:Chapter 08
00:22:34.978 : en:Chapter 09
00:24:52.365 : en:Chapter 10
00:28:36.297 : en:Chapter 11
00:32:45.922 : en:Chapter 12
00:41:05.212 : en:Chapter 13
00:44:34.922 : en:Chapter 14
00:45:38.777 : en:Chapter 15
00:49:17.037 : en:Chapter 16
00:51:28.710 : en:Chapter 17
00:52:23.640 : en:Chapter 18
00:54:04.699 : en:Chapter 19
00:58:27.337 : en:Chapter 20
01:01:18.007 : en:Chapter 21
01:03:33.434 : en:Chapter 22
01:05:51.906 : en:Chapter 23
01:08:16.717 : en:Chapter 24
01:09:56.066 : en:Chapter 25
01:10:43.989 : en:Chapter 26
01:16:04.184 : en:Chapter 27
01:18:45.303 : en:Chapter 28
01:19:53.747 : en:Chapter 29
01:26:31.936 : en:Chapter 30
01:28:15.123 : en:Chapter 31
01:31:33.529 : en:Chapter 32
01:35:37.189 : en:Chapter 33
01:39:34.593 : en:Chapter 34
01:41:02.264 : en:Chapter 35
01:43:59.733 : en:Chapter 36
Свернуть
Скриншоты

Изображение
Изображение
Изображение
Изображение
Изображение
Изображение
Свернуть

Изображение
Не в сети
Профиль  
Начать новую темуОтветить на тему  [ 1 сообщение ] 
Вы не можете начинать темы
Вы не можете отвечать на сообщения
Вы не можете редактировать свои сообщения
Вы не можете удалять свои сообщения