Правила форума

Здесь находятся раздачи, на которых не было полного источника (сида) более месяца.
Вы можете вернуть релиз в соответствующий раздел, для этого напишите нам в специальной теме и встаньте на раздачу.
Новые релизы, повторяющие релизы в архиве, повторами не считаются.
Начать новую темуОтветить на тему  [ 1 сообщение ] 
Сообщения
 Добавлено: 2012-02-17 08:04
Модератор релиз-группы
Аватара пользователя
Стаж: 9 лет 1 месяц
Возраст: 97
Сообщений: 11659
Спасибок: 6532
Лайков: 269
Во имя короля 2 / In the Name of the King 2: Two Worlds

Изображение

Страна: США
Год выхода: 2011
Жанр: Фэнтези,Приключения
Продолжительность: 01:36:00
Перевод: Любительский (двухголосый закадровый)
Режиссер: Уве Болл

В ролях: Дольф Лундгрен, Натасия Мальте, Локлин Манро, Хезер Дорксен, Алекс Паунович, Михаэлла Манн, Майкл Адамуэйт, Элизабет Розен

Описание: Средние века. Раздираемое кровавыми захватническими и междоусобными войнами, ранее бывшее тихим и спокойным, мирным и прекрасным, королевство Эхб весьма быстро превратилось в опустошённую землю ужаса, страха и угнетения. Отчаянно сопротивляющиеся жаждущему власти и богатства Лорду, остатки королевской знати и насмерть перепуганных местных жителей объединяют свои силы в тщетных попытках неравной борьбы с тираном.
Все и каждый в эти тёмные и ужасные времена испытывают необходимость в герое, освободителе, в том человеке, которому суждено сплотить и повести за собой людей, ослабленных и изнеможённых нескончаемой войной, людей, потерявших веру в чудо, но ещё хранящих в своих сердцах надежду об исполнении древнего пророчества. В старинных летописях говорится о Воине-освободителе, который, согласно преданию, «возьмётся из ниоткуда, и насмерть сразит угнетателя рода людского, ибо оному суждено свершить Божью кару над ненасытным Правителем».
И однажды появляется неизвестный странник в необычном одеянии — человек в странной экипировке, неустанно твердящий, что он «не из этих мест». Так начинается необыкновенная история, на прочно связавшая друг с другом путешествия во времени и в пространстве, грандиозные сражения и героические подвиги, волшебство и древнюю магию, пророчества и их чудесное воплощение в реальность…
Изображение
Качество: BDRip 1080p
Формат: mkv
Видео: AVC,1920x1080, 25 fps, 13.4 Mbps
Аудио 1: AC3, 48 KHz, 6 ch, 320 kbps [Russian]
Аудио 2: DTS, 48 KHz, 6 ch, 1510 kbps [English]
скриншоты
Изображение

Изображение

Изображение
Свернуть
Mi
Format : Matroska
Format version : Version 2
File size : 10.2 GiB
Duration : 1h 36mn
Overall bit rate : 15.2 Mbps
Movie name : **RVS**
Encoded date : UTC 2011-12-18 23:54:24
Writing application : mkvmerge v4.4.0 ('Die Wiederkehr') сборка от Oct 31 2010 21:52:48
Writing library : libebml v1.0.0 + libmatroska v1.0.0

Video
ID : 1
Format : AVC
Format/Info : Advanced Video Codec
Format profile : High@L4.1
Format settings, CABAC : Yes
Format settings, ReFrames : 4 frames
Codec ID : V_MPEG4/ISO/AVC
Duration : 1h 36mn
Bit rate : 13.4 Mbps
Width : 1 920 pixels
Height : 1 080 pixels
Display aspect ratio : 16:9
Frame rate : 23.976 fps
Color space : YUV
Chroma subsampling : 4:2:0
Bit depth : 8 bits
Scan type : Progressive
Bits/(Pixel*Frame) : 0.270
Stream size : 8.78 GiB (86%)
Title : In.the.Name.of.the.King.2.Two.Worlds.2011.BluRay.1080p.DTS.x264-CHD
Writing library : x264 core 102 r1666 d058f37
Encoding settings : cabac=1 / ref=4 / deblock=1:-3:-3 / analyse=0x3:0x113 / me=umh / subme=10 / psy=1 / psy_rd=1.05:0.10 / mixed_ref=1 / me_range=64 / chroma_me=1 / trellis=2 / 8x8dct=1 / cqm=2 / deadzone=21,11 / fast_pskip=0 / chroma_qp_offset=-2 / threads=12 / sliced_threads=0 / nr=0 / decimate=1 / interlaced=0 / constrained_intra=0 / bframes=3 / b_pyramid=2 / b_adapt=2 / b_bias=0 / direct=3 / weightb=1 / open_gop=0 / weightp=2 / keyint=250 / keyint_min=25 / scenecut=40 / intra_refresh=0 / rc_lookahead=60 / rc=2pass / mbtree=1 / bitrate=13402 / ratetol=2.0 / qcomp=0.70 / qpmin=10 / qpmax=51 / qpstep=4 / cplxblur=20.0 / qblur=0.5 / vbv_maxrate=50000 / vbv_bufsize=50000 / ip_ratio=1.40 / aq=1:1.00 / nal_hrd=none
Language : English
Default : No
Forced : No

Audio #1
ID : 2
Format : AC-3
Format/Info : Audio Coding 3
Mode extension : CM (complete main)
Codec ID : A_AC3
Duration : 1h 36mn
Bit rate mode : Constant
Bit rate : 320 Kbps
Channel(s) : 6 channels
Channel positions : Front: L C R, Side: L R, LFE
Sampling rate : 48.0 KHz
Bit depth : 16 bits
Compression mode : Lossy
Stream size : 220 MiB (2%)
Title : DVO
Language : Russian
Default : Yes
Forced : No

Audio #2
ID : 3
Format : DTS
Format/Info : Digital Theater Systems
Codec ID : A_DTS
Duration : 1h 36mn
Bit rate mode : Constant
Bit rate : 1 510 Kbps
Channel(s) : 6 channels
Channel positions : Front: L C R, Side: L R, LFE
Sampling rate : 48.0 KHz
Bit depth : 24 bits
Compression mode : Lossy
Stream size : 1.01 GiB (10%)
Title : In.the.Name.of.the.King.2.Two.Worlds.2011.DTS-HD.MA.Core_1509kbps
Language : English
Default : No
Forced : No

Свернуть
_________________
Изображение
Не в сети
Профиль  
Начать новую темуОтветить на тему  [ 1 сообщение ] 
Вы не можете начинать темы
Вы не можете отвечать на сообщения
Вы не можете редактировать свои сообщения
Вы не можете удалять свои сообщения