Правила форума

Здесь находятся раздачи, на которых не было полного источника (сида) более месяца.
Вы можете вернуть релиз в соответствующий раздел, для этого напишите нам в специальной теме и встаньте на раздачу.
Новые релизы, повторяющие релизы в архиве, повторами не считаются.
Начать новую темуОтветить на тему  [ Сообщений: 2 ] 
Сообщения
 Добавлено: 2011-01-04 02:19
Top-releaser
Аватара пользователя
Стаж: 6 лет 11 месяцев
Возраст: 45
Сообщений: 299
Спасибок: 4108
Лайков: 3
Во имя короля: История осады подземелья / In the Name of the King: A Dungeon Siege Tale
«A Dungeon Siege Tale»

Изображение

Год выпуска: 2006
Страна: США, Германия, Канада
Жанр: фэнтези, боевик, драма, приключения
Продолжительность: 02:07:04
Перевод: Профессиональный (полное дублирование)

Режиссер: Уве Болл / Uwe Boll
Сценарий: Даг Тейлор / Doug Taylor, Джейсон Раппапорт / Jason Rappaport, Дэн Стронкак / Dan Stroncak, Крис Тейлор / Chris Taylor
Продюсер: Брэндон Бэйкер / Brandon Baker, Джонатан Шор / Jonathan Shore, Шан Там / Shan Tam, Шоун Уильямсон / Shawn Williamson, Уве Болл / Uwe Boll
Оператор: Матиас Нойманн / Mathias Neumann
Композитор: Джессика Де Руйи / Jessica de Rooij, Хеннинг Лонер / Henning Lohner

В ролях: Джейсон Стэтхэм (Farmer), Лили Собески (Muriella), Джон Рис-Дэвис (Merick), Рон Перлман (Norick), Клер Форлани (Solana), Кристанна Локен (Elora), Мэттью Лиллард (Duke Fallow), Брайан Дж. Уайт (Commander Tarish), Майк Допуд (General Backler), Уилл Сэндерсон (Bastian), Таня Солнье (Talwyn), Рэй Лиотта (Gallian)
Описание: На фоне войны в королевстве Эхб между зловещим Галлианом и правящим королем Конредом, Фермер Дэймон ищет свою похищенную жену Солану и попутно мстит за смерть своего сына, убитого воинами-зверями Крагами.

Изображение
Бюджет: $60 000 000
Сборы в США: $4 775 656
Сборы в России: $1 389 735
Сборы в мире: $11 832 438
Мировая премьера: 3 ноября 2006
Релиз на Blu-ray: 1 сентября 2010, «Парадиз-ВC»
Изображение

MPAA: Изображение - Детям до 13 лет просмотр не желателен
Качество: BDRip, 1080p
Формат: Matroska
Видео: AVC; 1920x816 (2.35:1); 10737 Kbps; 23,976 fps; 0,286 bpp
Аудио №1: Russian; 48000Hz; DTS; 754 Kbps; CBR; 6 ch; 24 bit [Профессиональный (полное дублирование)]
Аудио №2: English; 48000Hz; DTS; 1509 Kbps; CBR; 6 ch; 24 bit
Субтитры: English

Раздача группы:Изображение

"MediaInfo"

General
Complete name : Vo.Imya.Korolya-Istoriya.Osadi.Podzemeliya.BDRip.1080p.[R.G.Daredevil].mkv
Format : Matroska
File size : 11.8 GiB
Duration : 2h 7mn
Overall bit rate : 13.3 Mbps
Encoded date : UTC 2008-09-20 18:59:01
Writing application : mkvmerge v2.2.0 ('Turn It On Again') built on Mar 4 2008 12:58:26
Writing library : libebml v0.7.7 + libmatroska v0.8.1

Video
ID : 1
Format : AVC
Format/Info : Advanced Video Codec
Format profile : High@L4.1
Format settings, CABAC : Yes
Format settings, ReFrames : 4 frames
Muxing mode : Container profile=Unknown@4.1
Codec ID : V_MPEG4/ISO/AVC
Duration : 2h 7mn
Bit rate : 11.0 Mbps
Width : 1 920 pixels
Height : 816 pixels
Display aspect ratio : 2.35:1
Original display aspect ratio : 2.35:1
Frame rate : 23.976 fps
Color space : YUV
Chroma subsampling : 4:2:0
Bit depth : 8 bits
Scan type : Progressive
Bits/(Pixel*Frame) : 0.293
Stream size : 9.53 GiB (81%)
Writing library : x264 core 59 r839M 27c3071
Encoding settings : cabac=1 / ref=4 / deblock=1:-2:-3 / analyse=0x3:0x113 / me=umh / subme=6 / me-prepass=0 / brdo=1 / mixed_ref=1 / me_range=16 / chroma_me=1 / trellis=1 / 8x8dct=1 / cqm=2 / deadzone=4,6 / chroma_qp_offset=0 / threads=6 / nr=0 / decimate=1 / mbaff=0 / fgo=0 / bframes=5 / b_pyramid=1 / b_adapt=1 / b_bias=0 / direct=3 / wpredb=1 / bime=1 / keyint=250 / keyint_min=25 / scenecut=40(pre) / rc=2pass / bitrate=11000 / ratetol=1.0 / rceq='blurCplx^(1-qComp)' / qcomp=1.00 / qpmin=10 / qpmax=51 / qpstep=4 / cplxblur=20.0 / qblur=0.5 / ip_ratio=1.40 / pb_ratio=1.30 / aq=2:1.00
Language : English

Audio #1
ID : 2
Format : DTS
Format/Info : Digital Theater Systems
Codec ID : A_DTS
Duration : 2h 7mn
Bit rate mode : Constant
Bit rate : 755 Kbps
Channel(s) : 6 channels
Channel positions : Front: L C R, Side: L R, LFE
Sampling rate : 48.0 KHz
Bit depth : 24 bits
Stream size : 686 MiB (6%)
Title : DTS 5.1
Language : Russian

Audio #2
ID : 3
Format : DTS
Format/Info : Digital Theater Systems
Codec ID : A_DTS
Duration : 2h 7mn
Bit rate mode : Constant
Bit rate : 1 510 Kbps
Channel(s) : 6 channels
Channel positions : Front: L C R, Side: L R, LFE
Sampling rate : 48.0 KHz
Bit depth : 24 bits
Stream size : 1.34 GiB (11%)
Title : DTS 5.1
Language : English

Text
ID : 4
Format : UTF-8
Codec ID : S_TEXT/UTF8
Codec ID/Info : UTF-8 Plain Text
Language : English
Свернуть
"Скриншоты"
Изображение
Изображение
Изображение
Изображение
Изображение
Изображение
Изображение
Изображение
Изображение
Изображение
Свернуть
Не в сети
Профиль  
 Добавлено: 2011-08-17 15:47 (спустя 7 месяцев)
Аватара пользователя
Стаж: 8 лет 2 месяца
Возраст: 28
Сообщений: 61
Спасибок: 1
раздайти плиз у кого есть
Не в сети
Профиль  
Начать новую темуОтветить на тему  [ Сообщений: 2 ] 
Вы не можете начинать темы
Вы не можете отвечать на сообщения
Вы не можете редактировать свои сообщения
Вы не можете удалять свои сообщения