Правила форума

Здесь находятся раздачи, на которых не было полного источника (сида) более месяца.
Вы можете вернуть релиз в соответствующий раздел, для этого напишите нам в специальной теме и встаньте на раздачу.
Новые релизы, повторяющие релизы в архиве, повторами не считаются.
Начать новую темуОтветить на тему  [ Сообщений: 3 ] 
Сообщения
 Добавлено: 2014-02-28 05:35
DVD Release Group
Аватара пользователя
Стаж: 7 лет 1 месяц
Сообщений: 3548
Спасибок: 247042
Лайков: 1018
Воровка книг

The Book Thief

«Отвага без лишних слов»


Изображение


Год выпуска: 2013
Страна: США, Германия
Жанр: Драма, военный
Продолжительность: 02:11:00
Перевод: Профессиональный (полное дублирование)
Субтитры: Русские, английские
Режиссер: Брайан Персивал
В ролях: Софи Нелисс, Джеффри Раш, Эмили Уотсон, Роджер Аллам, Хайке Макач, Джулиан Леманн, Готард Ланге, Райнер Рейнерс, Керстен Блок, Нико Лирш
Описание: Германия, начало 1939 года, канун Второй мировой войны. Смерть готовится начать свою жатву. Девятилетняя Лизель переезжает в Мюнхен к своим приемным родителям и с их помощью учится читать. С каждым днем чтение становится ее жизненной потребностью, и Лизель начинает воровать книги — единственную отраду ее жизни. Все, что она узнает из них, помогает ей понять события, происходящие вокруг нее — гонение на евреев, антифашистское движение, унижения и голод. Все это, в конце концов, сложится в ее собственную историю, историю ее жизни.
Изображение
Качество: BDRip 1080p
Формат: MKV
Видео кодек: H.264
Аудио кодек: DTS, AC3
Видео: 1920x800 23.98fps 10.6Мбит/с
Аудио:
Аудио Rus: AC3 48kHz 6ch 448kbps
Аудио Rus: DTS 48kHz 6ch 768kbps
Аудио Eng: DTS 48kHz 6ch 1510kbps
"MediaInfo"
Формат : Matroska
Версия формата : Version 2
Размер файла : 12,4 Гбайт
Продолжительность : 2 ч. 10 м.
Общий поток : 13,6 Мбит/сек
Дата кодирования : UTC 2014-02-27 23:39:58
Программа кодирования : mkvmerge v6.7.0 ('Back to the Ground') 64bit built on Jan 8 2014 15:10:52
Библиотека кодирования : libebml v1.3.0 + libmatroska v1.4.1

Видео
Идентификатор : 1
Формат : AVC
Формат/Информация : Advanced Video Codec
Профиль формата : High@L4.1
Параметр CABAC формата : Да
Параметр ReFrames формата : 5 кадров
Идентификатор кодека : V_MPEG4/ISO/AVC
Продолжительность : 2 ч. 10 м.
Битрейт : 10,6 Мбит/сек
Ширина : 1920 пикселей
Высота : 800 пикселей
Соотношение сторон : 2,40:1
Частота кадров : 23,976 кадра/сек
Цветовое пространство : YUV
Субдискретизация насыщенности : 4:2:0
Битовая глубина : 8 бит
Тип развёртки : Прогрессивная
Бит/(Пиксели*Кадры) : 0.287
Размер потока : 9,67 Гбайт (78%)
Язык : English
Default : Да
Forced : Нет

Аудио #1
Идентификатор : 2
Формат : DTS
Формат/Информация : Digital Theater Systems
Идентификатор кодека : A_DTS
Продолжительность : 2 ч. 10 м.
Вид битрейта : Постоянный
Битрейт : 755 Кбит/сек
Каналы : 6 каналов
Расположение каналов : Front: L C R, Side: L R, LFE
Частота : 48,0 КГц
Битовая глубина : 24 бит
Метод сжатия : С потерями
Размер потока : 707 Мбайт (6%)
Язык : Russian
Default : Да
Forced : Нет

Аудио #2
Идентификатор : 3
Формат : AC-3
Формат/Информация : Audio Coding 3
Расширение режима : CM (complete main)
Идентификатор кодека : A_AC3
Продолжительность : 2 ч. 10 м.
Вид битрейта : Постоянный
Битрейт : 448 Кбит/сек
Каналы : 6 каналов
Расположение каналов : Front: L C R, Side: L R, LFE
Частота : 48,0 КГц
Битовая глубина : 16 бит
Метод сжатия : С потерями
Размер потока : 420 Мбайт (3%)
Язык : Russian
Default : Нет
Forced : Нет

Аудио #3
Идентификатор : 4
Формат : DTS
Формат/Информация : Digital Theater Systems
Идентификатор кодека : A_DTS
Продолжительность : 2 ч. 10 м.
Вид битрейта : Постоянный
Битрейт : 1510 Кбит/сек
Каналы : 6 каналов
Расположение каналов : Front: L C R, Side: L R, LFE
Частота : 48,0 КГц
Битовая глубина : 24 бит
Метод сжатия : С потерями
Размер потока : 1,38 Гбайт (11%)
Язык : English
Default : Нет
Forced : Нет

Текст #1
Идентификатор : 5
Формат : UTF-8
Идентификатор кодека : S_TEXT/UTF8
Идентификатор кодека/Информация : UTF-8 Plain Text
Язык : Russian
Default : Да
Forced : Да

Текст #2
Идентификатор : 6
Формат : UTF-8
Идентификатор кодека : S_TEXT/UTF8
Идентификатор кодека/Информация : UTF-8 Plain Text
Язык : Russian
Default : Нет
Forced : Нет

Текст #3
Идентификатор : 7
Формат : UTF-8
Идентификатор кодека : S_TEXT/UTF8
Идентификатор кодека/Информация : UTF-8 Plain Text
Заголовок : English
Default : Нет
Forced : Нет

Текст #4
Идентификатор : 8
Формат : UTF-8
Идентификатор кодека : S_TEXT/UTF8
Идентификатор кодека/Информация : UTF-8 Plain Text
Заголовок : Forced
Язык : English
Default : Нет
Forced : Нет

Меню
00:00:00.000 : en:00:00:00.000
00:03:50.230 : en:00:03:50.230
00:07:58.061 : en:00:07:58.061
00:10:27.126 : en:00:10:27.126
00:13:42.405 : en:00:13:42.405
00:17:54.949 : en:00:17:54.949
00:20:17.591 : en:00:20:17.591
00:23:01.380 : en:00:23:01.380
00:24:57.746 : en:00:24:57.746
00:26:58.158 : en:00:26:58.158
00:30:54.811 : en:00:30:54.811
00:34:01.164 : en:00:34:01.164
00:39:21.859 : en:00:39:21.859
00:43:00.870 : en:00:43:00.870
00:45:09.999 : en:00:45:09.999
00:50:59.056 : en:00:50:59.056
00:52:18.761 : en:00:52:18.761
00:54:55.709 : en:00:54:55.709
00:59:04.624 : en:00:59:04.624
01:02:16.232 : en:01:02:16.232
01:05:42.564 : en:01:05:42.564
01:08:20.513 : en:01:08:20.513
01:12:41.983 : en:01:12:41.983
01:18:14.857 : en:01:18:14.857
01:23:50.025 : en:01:23:50.025
01:27:59.399 : en:01:27:59.399
01:30:46.274 : en:01:30:46.274
01:36:25.405 : en:01:36:25.405
01:40:48.584 : en:01:40:48.584
01:43:54.812 : en:01:43:54.812
01:47:24.104 : en:01:47:24.104
01:49:38.405 : en:01:49:38.405
01:54:24.274 : en:01:54:24.274
02:02:10.949 : en:02:02:10.949
02:03:13.386 : en:02:03:13.386
02:05:21.514 : en:02:05:21.514
Свернуть

"Скриншоты"
Изображение
Изображение
Изображение
Изображение
Изображение
Свернуть
Не в сети
Профиль  
 Добавлено: 2014-02-28 08:54 (спустя 3 часа)
Аватара пользователя
Стаж: 9 лет 1 месяц
Сообщений: 7977
Спасибок: 122205
Лайков: 1191
Сцена.
при появлении лучшего будет поглощен
Не в сети
Профиль  
 Добавлено: 2014-02-28 16:32 (спустя 7 часов)
Аватара пользователя
Стаж: 9 лет 1 месяц
Сообщений: 7977
Спасибок: 122205
Лайков: 1191
http://nnportal.org/tracker/zarubejnoe- ... 26656.html
Не в сети
Профиль  
Начать новую темуОтветить на тему  [ Сообщений: 3 ] 
Вы не можете начинать темы
Вы не можете отвечать на сообщения
Вы не можете редактировать свои сообщения
Вы не можете удалять свои сообщения